Welcome Guest ( Log In | Register )

> Releases Upload / Добавление релизов

Добавить релиз тут / Click here to add release
Рекомендованные обменники / Recommended file shares

> Snake Eyes - No One Left To Die (2022), Thrash Metal (D5)
post Jun 24 2022, 01:15:55
Post #1

Правь статус, ####!111
**************
Group: Металариец
Posts: 29,686
Releases: 21836
From: Г.Харьков
On Forums: 10 years 1 month
Thanks: 452826 time(s)
Unknown


(IMG:https://metalarea.org/images/audiocovers/2022_Jun/acov_tid366410_thumb.jpg)

*Artist: Snake Eyes
*Album: No One Left To Die
*Year: 2022
*Genre: Thrash Metal
*Country: Poland (IMG:https://metalarea.org/forum/style_images/flags/Poland.png)
*Format: mp3@CBR320kbps
*Size: 121MB

Tracklist:
1. The Masque of the Red Death 05:05
2. No One Left to Die 05:11
3. Roi de Rats 04:00
4. Underdog 03:59
5. Talamasca 05:03
6. All We Need Is Love and Blood 02:54
7. Fear of Gehenna 05:08
8. Plague I 05:48
9. Stabbed in the Back 04:23
10. Sigh of Death 11:20
******************************
Total playing time: 52:51




Extended info
Sewko Guitars (2002-present)
See also: ex-Bottlekopf, ex-Decay (live)
Hipis Bass (2009-present)
See also: ex-SickNest, ex-Incinerate Infection, ex-Locust
Art Guitars (2012-present)
See also: ex-Humanimal
Oskar Drums (2017-present)
See also: Lęk, ex-The No-Mads, ex-Nomads, ex-Tortura
Marth Vocals (2018-present)
See also: Corpus


Technical info
(IMG:https://metalarea.org/images/spectrogram/2022_Jun/3fafd89aba94bb3188b4a9240c5ade9e.png)
Input File: 07 - Fear Of Gehenna.mp3
Channels : 2
Sample Rate : 44100
Precision : 16-bit
Duration : 00:05:05.00 = 13450500 samples = 22875 CDDA sectors
File Size : 12.3M
Bit Rate : 323k
Sample Encoding: MPEG audio (layer I, II or III)
Comments :
Title=Fear Of Gehenna
Artist=snake eyes
Album=No One Left To Die
Tracknumber=7
Year=2022-04-02
Genre=Metal
Discnumber=1



Register


Go to the top of the page
  Insert nick Quick quote
+Quote Post
 
Start new topic
Replies (1 - 2)
post Jun 24 2022, 08:02:51
Post #2

0%Tolerance
***********
Group: Металариец
Posts: 1,955
Releases: 0
On Forums: 9 years 9 months
Thanks: 413 time(s)
Unknown


Годный такой трэшх дэтх митол.


Thanks:
Go to the top of the page
  Insert nick Quick quote
+Quote Post
post Jun 24 2022, 19:55:31
Post #3

Семь Литров
*******
Group: Металариец
Posts: 754
Releases: 0
From: Нижний Новгород
On Forums: 12 years 8 months
Thanks: 182 time(s)
Russian Federation


Релиз прекрасен (IMG:style_emoticons/default/20.gif)


Thanks:
Go to the top of the page
  Insert nick Quick quote
+Quote Post

Reply to this topicStart new topic
2 User(s) are reading this topic (2 Guests and 0 Anonymous Users)
0 Members:

 



- Lo-Fi Version Support form
Copyrights and abuse reports form
Time is now: 7th July 2022 - 11:46:09