Welcome Guest ( Log In | Register )

> Releases Upload / Добавление релизов

Добавить релиз тут / Click here to add release
Рекомендованные обменники / Recommended file shares

 
Reply to this topicStart new topic
> Sealed - Disciple (2022), Melodic Death Metal
post Jun 24 2022, 02:14:09
Post #1

Правь статус, ####!111
**************
Group: Металариец
Posts: 29,934
Releases: 22027
From: Г.Харьков
On Forums: 10 years 3 months
Thanks: 458186 time(s)
Unknown


(IMG:https://metalarea.org/images/audiocovers/2022_Jun/acov_tid366411_thumb.jpg)

*Artist: Sealed
*Album: Disciple
*Year: 2022
*Genre: Melodic Death Metal
*Country: Russian Federation (IMG:https://metalarea.org/forum/style_images/flags/Russian%20Federation.png)
*Format: mp3@CBR320kbps
*Size: 100MB

Tracklist:
1. Seeds 04:22
2. Decompression 04:16
3. Fate Is Painted Grey 04:13
4. Unsafe Travels 04:34
5. Marked by Сrows 04:17
6. Therapy 03:18
7. Ante 04:58
8. Obstinate Heir 04:25
9. Will Ever North Embrace Me 04:54
10. God of Hypocrisy 04:07
******************************
Total playing time: 43:24



Preview 3

Technical info
(IMG:https://metalarea.org/images/spectrogram/2022_Jun/ab10461bb4b5a5aa853e6b28838cab6e.png)
Input File: Sealed - Disciple - 07 Ante.mp3
Channels : 2
Sample Rate : 44100
Precision : 16-bit
Duration : 00:04:58.31 = 13155383 samples = 22373.1 CDDA sectors
File Size : 12.0M
Bit Rate : 323k
Sample Encoding: MPEG audio (layer I, II or III)
Comments :
Title=Ante
Artist=Sealed
Album=Disciple
Tracknumber=7
Year=2022



Register


Go to the top of the page
  Insert nick Quick quote
+Quote Post

Reply to this topicStart new topic
1 User(s) are reading this topic (1 Guests and 0 Anonymous Users)
0 Members:

 



- Lo-Fi Version Support form
Copyrights and abuse reports form
Time is now: 10th August 2022 - 23:34:44