Welcome Guest ( Log In | Register )

> Releases Upload / Добавление релизов

Добавить релиз тут / Click here to add release
Рекомендованные обменники / Recommended file shares

> Volcandra - Border World [ep] (2022), Melodic Black Metal
post Jun 24 2022, 05:21:14
Post #1

Правь статус, ####!111
**************
Group: Металариец
Posts: 3,238
Releases: 1744
On Forums: 11 years 8 months
Thanks: 33903 time(s)
Russian Federation


(IMG:https://metalarea.org/images/audiocovers/2022_Jun/acov_tid366418_thumb.jpg)

*Artist: Volcandra
*Album: Border World [ep]
*Year: 2022
*Genre: Melodic Black Metal
*Country: United States (IMG:https://metalarea.org/forum/style_images/flags/United%20States.png)
*Format: mp3@CBR320kbps
*Size: 44MB

Tracklist:
1.Tallon IV 03:21
2.Resonance Cascade 06:32
3.Colossi 05:38
4.Guardian 04:01
******************************
Total playing time: 19:32



Technical info
(IMG:https://metalarea.org/images/spectrogram/2022_Jun/d3b6dbe9171ebefcb975f5585a18d864.png)
Input File: 01 - Tallon IV.mp3
Channels : 2
Sample Rate : 44100
Precision : 16-bit
Duration : 00:03:21.73 = 8896337 samples = 15129.8 CDDA sectors
File Size : 8.14M
Bit Rate : 323k
Sample Encoding: MPEG audio (layer I, II or III)
Comments :
Title=Tallon IV
Artist=Volcandra
Album=Border World
Tracknumber=01
Year=2022
Genre=Melodic Black Metal



Register


Go to the top of the page
  Insert nick Quick quote
+Quote Post
 
Start new topic
Replies (1 - 2)
post Jun 30 2022, 00:44:13
Post #2

0%Tolerance
**************
Group: Металариец
Posts: 2,059
Releases: 0
On Forums: 9 years 11 months
Thanks: 425 time(s)
Unknown


Херь.
Go to the top of the page
  Insert nick Quick quote
+Quote Post
post Jul 6 2022, 11:14:13
Post #3

добрый мизантроп
**************
Group: Металариец
Posts: 3,109
Releases: 1
From: Менск
On Forums: 11 years 9 months
Thanks: 1379 time(s)
Madagascar


Nice MDM with modern influences and DT kind vocals, 9/10
Go to the top of the page
  Insert nick Quick quote
+Quote Post

Reply to this topicStart new topic
1 User(s) are reading this topic (1 Guests and 0 Anonymous Users)
0 Members:

 



- Lo-Fi Version Support form
Copyrights and abuse reports form
Time is now: 17th August 2022 - 11:49:13