Welcome Guest ( Log In | Register )

 
Reply to this topicStart new topic
> Condemned - Condemned [demo] (1989), Thrash Metal
post Jun 24 2022, 16:35:02
Post #1

Подвал
**************
Group: Металариец
Posts: 17,568
Releases: 10034
From: Far East (Khabarovsk)
On Forums: 13 years 6 months
Thanks: 116721 time(s)
Russian Federation


(IMG:http://metalarea.org/images/audiocovers/2022_Jun/acov_tid366429_thumb.jpg)

*Artist: Condemned
*Album: Condemned [demo]
*Year: 1989
*Genre: Thrash Metal
*Country: United States (IMG:http://metalarea.org/forum/style_images/flags/United%20States.png)
*Format: mp3@CBR192kbps
*Size: 22MB

Tracklist:
1. Painless Termination 03:48
2. Negative Response 05:11
3. Blame Yourself 04:19
4. Why Pay More? 02:53
******************************
Total playing time: 16:11

Extended info
Band from Merrick (Long Island), New York.
Recorded at Mind Magic Productions in Hyde Park, New York in April 1989.


Technical info
(IMG:http://metalarea.org/images/spectrogram/2022_Jun/c19805600ecf7628327c4cb40f4872d7.png)
Input File: 01-Painless Termination.mp3
Channels : 2
Sample Rate : 44100
Precision : 16-bit
Duration : 00:03:47.88 = 10049420 samples = 17090.9 CDDA sectors
File Size : 5.47M
Bit Rate : 192k
Sample Encoding: MPEG audio (layer I, II or III)
Comments :
Title=Painless Termination
Artist=Condemned (US, NY)
Album=Condemned (Demo)
Tracknumber=01
Year=1989
Genre=Thrash Metal



Register


Go to the top of the page
  Insert nick Quick quote
+Quote Post

Reply to this topicStart new topic
1 User(s) are reading this topic (1 Guests and 0 Anonymous Users)
0 Members:

 



- Lo-Fi Version Support form
Copyrights and abuse reports form
Time is now: 17th August 2022 - 11:29:04