Welcome Guest ( Log In | Register )

> Releases Upload / Добавление релизов

Добавить релиз тут / Click here to add release
Рекомендованные обменники / Recommended file shares

 
Reply to this topicStart new topic
> Battlezone & Killers - Killers In The Battlezone [split] (2022), Heavy Metal | Heavy Metal (D4)
post Jun 24 2022, 18:59:49
Post #1

Правь статус, ####!111
**************
Group: Металариец
Posts: 5,327
Releases: 4877
From: Одесса
On Forums: 14 years 2 months
Thanks: 57302 time(s)
Ukraine


(IMG:http://metalarea.org/images/audiocovers/2022_Jun/acov_tid366436_thumb.jpg)

*Artist: Battlezone & Killers
*Album: Killers In The Battlezone [split]
*Year: 2022
*Genre: Heavy Metal | Heavy Metal
*Country: United Kingdom (IMG:http://metalarea.org/forum/style_images/flags/United%20Kingdom.png) | United Kingdom (IMG:http://metalarea.org/forum/style_images/flags/United%20Kingdom.png)
*Format: mp3@CBR320kbps
*Size: 348MB

Tracklist:
Disc 1 - Fighting Back

Battlezone:
1. (Forever) Fighting Back
2. Welcome to the Battlezone
3. Warchild
4. In the Darkness
5. The Land God Gave to Caine
6. Running Blind
7. Too Much Heart
8. Voice on the Radio
9. Welfare Warriors
10. Feel the Rock
11. Rising Star

Disc 2 - Children of Madness

12. Rip It Up
13. I Don’t Wanna Know
14. Nuclear Breakdown
15. Torch of Hate
16. Whispered Rage
17. Children of Madness
18. Metal Tears
19. It’s Love
20. Overloaded
21. The Promise
22. To the Limit
23. Drawn Under

Disc 3 - Killers: Live at the Whiskey

Killers:
24. Impaler
25. Wrathchild
26. A Song for You
27. Marshall Lokjaw
28. Children of the Revolution
29. Three Words
30. Protector
31. Die by the Gun
32. Remember Tomorrow
33. Phantom of the Opera
34. Sanctuary
******************************
Total playing time: 2:29:52

Extended info
CD 1:
- Track 11 is taken from the "Warchild, the Best of Battlezone" Compilation CD released in 1988

CD 2:
- Track 11 was originally released on the "Warchild, the Best of Battlezone" Compilation CD and later album reissues as bonus track
- Track 12 was released on the "Elementals UK HM" Compilation Lp 1989

CD 3:
- Recorded live at Los Angeles’ Whiskey A Go Go in 2000.



Technical info
(IMG:http://metalarea.org/images/spectrogram/2022_Jun/8f3c57f0e264b1cf1f3593f70c1f1ae6.png)
Input File: 01 - Impaler (Live, Whisky a Go Go, Los Angeles).mp3
Channels : 2
Sample Rate : 44100
Precision : 16-bit
Duration : 00:04:12.00 = 11113200 samples = 18900 CDDA sectors
File Size : 10.1M
Bit Rate : 321k
Sample Encoding: MPEG audio (layer I, II or III)
Comments :
Title=Impaler (Live, Whisky a Go Go, Los Angeles)
Artist=Killers
Album=Killers in the Battlezone (Split)
Tracknumber=1
Year=2022-06-24
Genre=137
Discnumber=3



Register


Go to the top of the page
  Insert nick Quick quote
+Quote Post

Reply to this topicStart new topic
1 User(s) are reading this topic (1 Guests and 0 Anonymous Users)
0 Members:

 



- Lo-Fi Version Support form
Copyrights and abuse reports form
Time is now: 17th August 2022 - 11:33:06