Welcome Guest ( Log In | Register )

> Releases Upload / Добавление релизов

Добавить релиз тут / Click here to add release
Рекомендованные обменники / Recommended file shares

 
Reply to this topicStart new topic
> Zatyr - Where Light Would Not Dare (2022), Heavy Metal
post Jun 24 2022, 19:53:48
Post #1

Правь статус, ####!111
**************
Group: Металариец
Posts: 29,954
Releases: 22044
From: Г.Харьков
On Forums: 10 years 3 months
Thanks: 458704 time(s)
Unknown


(IMG:https://metalarea.org/images/audiocovers/2022_Jun/acov_tid366439_thumb.jpg)

*Artist: Zatyr
*Album: Where Light Would Not Dare
*Year: 2022
*Genre: Heavy Metal
*Country: Sweden (IMG:https://metalarea.org/forum/style_images/flags/Sweden.png)
*Format: mp3@CBR320kbps
*Size: 92MB

Tracklist:
1. Lífþrasir 01:07
2. Savage Hunt 04:20
3. Ride by Night 05:36
4. Beckoning from Beyond 08:12
5. Desolate Shrine 04:07
6. Voice of the Wild 03:03
7. Heiðr 04:16
8. Death's Trinity 08:55
******************************
Total playing time: 39:36




Extended info
Hermes Von Hasselhuhn Bass
Zlim Knoxx Drums
Van Wohlen Guitars
Set Vocals


Technical info
(IMG:https://metalarea.org/images/spectrogram/2022_Jun/10d6369158f3361c20118824081687ac.png)
Input File: Zatyr - Where Light Would Not Dare - 07 Heiðr.mp3
Channels : 2
Sample Rate : 44100
Precision : 16-bit
Duration : 00:04:16.27 = 11301727 samples = 19220.6 CDDA sectors
File Size : 10.4M
Bit Rate : 326k
Sample Encoding: MPEG audio (layer I, II or III)
Comments :
Title=Heiðr
Artist=Zatyr
Album=Where Light Would Not Dare
Tracknumber=7
Year=2022



Register


Go to the top of the page
  Insert nick Quick quote
+Quote Post

Reply to this topicStart new topic
1 User(s) are reading this topic (1 Guests and 0 Anonymous Users)
0 Members:

 



- Lo-Fi Version Support form
Copyrights and abuse reports form
Time is now: 17th August 2022 - 11:43:12