Welcome Guest ( Log In | Register )

> Releases Upload / Добавление релизов

Добавить релиз тут / Click here to add release
Рекомендованные обменники / Recommended file shares

 
Reply to this topicStart new topic
> Nightchrome - Immortal [ep] (2022), Heavy/Doom Metal
post Jun 24 2022, 20:30:07
Post #1

Правь статус, ####!111
**************
Group: Металариец
Posts: 29,934
Releases: 22028
From: Г.Харьков
On Forums: 10 years 3 months
Thanks: 458249 time(s)
Unknown


(IMG:https://metalarea.org/images/audiocovers/2022_Jun/acov_tid366442_thumb.jpg)

*Artist: Nightchrome
*Album: Immortal [ep]
*Year: 2022
*Genre: Heavy/Doom Metal
*Country: Canada (IMG:https://metalarea.org/forum/style_images/flags/Canada.png)
*Format: mp3@CBR320kbps
*Size: 48MB

Tracklist:
1. Steel Bearing Hand 05:26
2. Nightchrome 06:07
3. Sultan of Strife 04:01
4. Immortal 05:15
******************************
Total playing time: 20:49



Extended info
Ian Romano Drums
Ben Neufeld Guitars, Vocals


Technical info
(IMG:https://metalarea.org/images/spectrogram/2022_Jun/9ea645b4a408ec81186ce1c6854d4308.png)
Input File: 02 - Nightchrome.mp3
Channels : 2
Sample Rate : 44100
Precision : 16-bit
Duration : 00:06:07.00 = 16184700 samples = 27525 CDDA sectors
File Size : 14.8M
Bit Rate : 324k
Sample Encoding: MPEG audio (layer I, II or III)
Comments :
Title=Nightchrome
Artist=Nightchrome
Album=Immortal
Tracknumber=2
Year=2022-06-22
Genre=Rock
Discnumber=1



Register


Go to the top of the page
  Insert nick Quick quote
+Quote Post

Reply to this topicStart new topic
1 User(s) are reading this topic (1 Guests and 0 Anonymous Users)
0 Members:

 



- Lo-Fi Version Support form
Copyrights and abuse reports form
Time is now: 11th August 2022 - 20:02:29