Welcome Guest ( Log In | Register )

> Noitasapatti - Kuolemattomille Maille (2022), Melodic Black Metal
post Jun 25 2022, 17:15:15
Post #1

Правь статус, ####!111
**************
Group: Металариец
Posts: 5,736
Releases: 5254
From: Одесса
On Forums: 14 years 6 months
Thanks: 61465 time(s)
Ukraine


(IMG:http://metalarea.org/images/audiocovers/2022_Jun/acov_tid366480_thumb.jpg)

*Artist: Noitasapatti
*Album: Kuolemattomille Maille
*Year: 2022
*Genre: Melodic Black Metal
*Country: Finland (IMG:http://metalarea.org/forum/style_images/flags/Finland.png)
*Format: mp3@CBR320kbps
*Size: 102MB

Tracklist:
1. Kuolemattomille Maille 10:40
2. Punainen Portti 03:57
3. Maailman Hauta 06:56
4. Herramme Tuli Palaa 07:09
5. Susien Mailla 14:23
******************************
Total playing time: 43:05



Extended info
Line - up:

Mielivalta - Guitars
Liekkiö - Guitars, Keyboards (Tahdoton, The Supergods)
Erakko - Vocals, Bass
Pyöveli - Drums


Technical info
(IMG:http://metalarea.org/images/spectrogram/2022_Jun/5e44465bd57c036f97f238ecff0d24fe.png)
Input File: 05. Susien mailla.mp3
Channels : 2
Sample Rate : 48000
Precision : 16-bit
Duration : 00:14:23.72 = 41458320 samples ~ 64778.6 CDDA sectors
File Size : 34.6M
Bit Rate : 320k
Sample Encoding: MPEG audio (layer I, II or III)
Comments :
Title=Susien mailla
Artist=Noitasapatti
Album=Kuolemattomille maille
Tracknumber=5
Year=2022
Genre=138



Register


Go to the top of the page
  Insert nick Quick quote
+Quote Post
 
Start new topic
Replies (1 - 3)
post Jun 27 2022, 08:44:54
Post #2

Четыре Литра
****
Group: Металариец
Posts: 373
Releases: 0
From: TheМля
On Forums: 16 years 2 months
Thanks: 128 time(s)
Belarus


Какое звучно-певучее название альбома.
Go to the top of the page
  Insert nick Quick quote
+Quote Post
post Jun 28 2022, 12:00:16
Post #3
BAN
RO till
Dec 7 2022, 19:26:25



Милодиг блэкх. (IMG:style_emoticons/default/crazy.gif)
Голосина --- околодепрессивно-жвачное гвно (не везде) под аккомпанемент а-ля Джон Бови в коллаборации с Паноптикум. (IMG:style_emoticons/default/1488.gif) Инструментальная составляющая, кстати, звучит довольно неплохо. В общем и целом - классный стафф.


Thanks:
(1) Olrak,
Go to the top of the page
  Insert nick Quick quote
+Quote Post
post Jun 28 2022, 14:19:06
Post #4

Мегаманьяк
***********
Group: Металариец
Posts: 1,638
Releases: 0
From: Russian Federation - St.Petersburg
On Forums: 13 years 9 months
Thanks: 464 time(s)
Russian Federation


ЦИТАТА(Vitald @ Jun 28 2022, 14:00:16) *
Милодиг блэкх. (IMG:style_emoticons/default/crazy.gif)
Голосина --- околодепрессивно-жвачное гвно (не везде) под аккомпанемент а-ля Джон Бови в коллаборации с Паноптикум. (IMG:style_emoticons/default/1488.gif) Инструментальная составляющая, кстати, звучит довольно неплохо. В общем и целом - классный стафф

"Вопли Водоплясова". (IMG:style_emoticons/default/1488.gif) Однако в некоторых "атмосфериках" такого рода вокал очень даже неплохо сочетается со стилем (IMG:style_emoticons/default/hmm.gif)
Go to the top of the page
  Insert nick Quick quote
+Quote Post

Reply to this topicStart new topic
2 User(s) are reading this topic (2 Guests and 0 Anonymous Users)
0 Members:

 



- Lo-Fi Version Support form
Copyrights and abuse reports form
Time is now: 3rd December 2022 - 16:48:14