Welcome Guest ( Log In | Register )

> Releases Upload / Добавление релизов

Добавить релиз тут / Click here to add release
Рекомендованные обменники / Recommended file shares

> Leprosy - Impulse To Kill (2022), Death/Thrash Metal
post Jun 25 2022, 17:15:23
Post #1

Правь статус, ####!111
**************
Group: Металариец
Posts: 29,934
Releases: 22027
From: Г.Харьков
On Forums: 10 years 3 months
Thanks: 458186 time(s)
Unknown


(IMG:https://metalarea.org/images/audiocovers/2022_Jun/acov_tid366481_thumb.jpg)

*Artist: Leprosy
*Album: Impulse To Kill
*Year: 2022
*Genre: Death/Thrash Metal
*Country: United States (IMG:https://metalarea.org/forum/style_images/flags/United%20States.png)
*Format: mp3@CBR320kbps
*Size: 87MB

Tracklist:
01. Impulse To Kill
02. Smorgasbord Of Rotting Whores
03. Human Canvas
04. Rotting And Willing
05. Walking Autopsy
06. Echo Of Repulsion
07. Face Fucked With A Meathook
08. From The Grave To The Microwave
******************************
Total playing time: 37:05




Extended info
Jason Yaklich Bass
Chris 'Corpse God' Pawlowski Guitars, Vocals (1988-present)
See also: ex-Freek
PJ Colligan Vocals (2014-present)
Jeff Kula Guitars (2015-present)
Seth Collins Drums (2020-present)


Technical info
(IMG:https://metalarea.org/images/spectrogram/2022_Jun/d79cbb27f57d53043fdbf532a4805ae9.png)
Input File: Leprosy - Impulse to Kill - 07. Face Fucked with a Meathook.mp3
Channels : 2
Sample Rate : 44100
Precision : 16-bit
Duration : 00:04:31.67 = 11980603 samples = 20375.2 CDDA sectors
File Size : 11.1M
Bit Rate : 327k
Sample Encoding: MPEG audio (layer I, II or III)
Comments :
Title=Face Fucked with a Meathook
Artist=Leprosy
Album=Impulse to Kill
Tracknumber=7/8
Year=2022
Genre=Metal



Register


Go to the top of the page
  Insert nick Quick quote
+Quote Post
 
Start new topic
Replies (1 - 4)
post Jun 25 2022, 18:00:12
Post #2

Правь статус, ####!111
**************
Group: Металариец
Posts: 29,934
Releases: 22027
From: Г.Харьков
On Forums: 10 years 3 months
Thanks: 458186 time(s)
Unknown


FLAC (Tracks) 289 mb
Register


Go to the top of the page
  Insert nick Quick quote
+Quote Post
post Jun 25 2022, 22:28:16
Post #3

Три Литра
***
Group: Завсегдатай
Posts: 274
Releases: 0
On Forums: 12 years 9 months
Thanks: 84 time(s)
Unknown


DR 5 и пластиковый звук. Все очень печально. Металла ноль.
Go to the top of the page
  Insert nick Quick quote
+Quote Post
post Jun 26 2022, 12:47:08
Post #4

De Mysteriis Dom Sathanas
**************
Group: Металариец
Posts: 4,470
Releases: 64
From: Doom
On Forums: 14 years 4 weeks
Thanks: 3864 time(s)
Russian Federation


Эх, сразу Death 1988 вспомнился (IMG:style_emoticons/default/6.gif)
Go to the top of the page
  Insert nick Quick quote
+Quote Post
post Jun 26 2022, 13:00:26
Post #5

Маньяк
**********
Group: Металариец
Posts: 1,044
Releases: 0
From: China
On Forums: 14 years 7 months
Thanks: 802 time(s)
Bulgaria


tight, heavy semi-technical death metal with echoes of early Deicide, including in the vocal department. Good enjoyable stuff overall, with bits and pieces of thrash thrown in here and there
Go to the top of the page
  Insert nick Quick quote
+Quote Post

Reply to this topicStart new topic
1 User(s) are reading this topic (1 Guests and 0 Anonymous Users)
0 Members:

 



- Lo-Fi Version Support form
Copyrights and abuse reports form
Time is now: 10th August 2022 - 23:25:38