Welcome Guest ( Log In | Register )

> Releases Upload / Добавление релизов

Добавить релиз тут / Click here to add release
Рекомендованные обменники / Recommended file shares

 
Reply to this topicStart new topic
> Dakuri - Pt. 1: Navia (2022) (ep), Symphonic/Progressive Metal
post Jun 26 2022, 16:38:11
Post #1

Правь статус, ####!111
**************
Group: Металариец
Posts: 3,238
Releases: 1744
On Forums: 11 years 8 months
Thanks: 33903 time(s)
Russian Federation


(IMG:https://metalarea.org/images/audiocovers/2022_Jun/acov_tid366512_thumb.jpg)

*Artist: Dakuri
*Album: Pt. 1: Navia
*Year: 2022
*Genre: Symphonic/Progressive Metal
*Country: Mexico (IMG:https://metalarea.org/forum/style_images/flags/Mexico.png)
*Format: mp3@CBR320kbps
*Size: 39MB

Tracklist:
1.Into a New Universe 02:16
2.The Rules 04:11
3.The Great War (ft. Uidemar Draven) 06:02
4.Soneria Falls 04:34
******************************
Total playing time: 17:03



Technical info
(IMG:https://metalarea.org/images/spectrogram/2022_Jun/9b13376c9595765e1361637d51829ab5.png)
Input File: 02 - The Rules.mp3
Channels : 2
Sample Rate : 44100
Precision : 16-bit
Duration : 00:04:11.18 = 11077214 samples = 18838.8 CDDA sectors
File Size : 10.1M
Bit Rate : 323k
Sample Encoding: MPEG audio (layer I, II or III)
Comments :
Title=The Rules
Artist=Dakuri
Album=Pt. 1: Navia
Tracknumber=02
Year=2022
Genre=Symphonic/Progressive Metal



Register


Go to the top of the page
  Insert nick Quick quote
+Quote Post

Reply to this topicStart new topic
1 User(s) are reading this topic (1 Guests and 0 Anonymous Users)
0 Members:

 



- Lo-Fi Version Support form
Copyrights and abuse reports form
Time is now: 17th August 2022 - 11:39:10