Welcome Guest ( Log In | Register )

> Releases Upload / Добавление релизов

Добавить релиз тут / Click here to add release
Рекомендованные обменники / Recommended file shares

 
Reply to this topicStart new topic
> In The Colonnades - Fryday [single] (1989), Doom Metal/Heavy Metal (D5)
post Jun 26 2022, 19:10:14
Post #1

Пять Литров
*****
Group: Металариец
Posts: 400
Releases: 7
On Forums: 10 years 2 months
Thanks: 202 time(s)
Russian Federation


(IMG:http://metalarea.org/images/audiocovers/2022_Jun/acov_tid366515_thumb.jpg)

*Artist: In The Colonnades
*Album: Fryday [single]
*Year: 1989
*Genre: Doom Metal/Heavy Metal
*Country: Sweden (IMG:http://metalarea.org/forum/style_images/flags/Sweden.png)
*Format: mp3@CBR320kbps
*Size: 45MB

Tracklist:
1. Fryday
2. War
3. R.E.P.O.
******************************
Total playing time: 15:49

Technical info
(IMG:http://metalarea.org/images/spectrogram/2022_Jun/705a387b90d3de75995e0b9c20199313.png)
Input File: 02. War.mp3
Channels : 2
Sample Rate : 44100
Precision : 16-bit
Duration : 00:04:05.09 = 10808645 samples = 18382 CDDA sectors
File Size : 11.6M
Bit Rate : 379k
Sample Encoding: MPEG audio (layer I, II or III)
Comments :
Title=War
Artist=In The Colonnades
Album=Fryday
Tracknumber=02
Year=1989
Genre=Doom / Heavy Metal



Register


Go to the top of the page
  Insert nick Quick quote
+Quote Post

Reply to this topicStart new topic
1 User(s) are reading this topic (1 Guests and 0 Anonymous Users)
0 Members:

 



- Lo-Fi Version Support form
Copyrights and abuse reports form
Time is now: 17th August 2022 - 11:19:35