Welcome Guest ( Log In | Register )

> War Därmen - Colonization (2022), Thrash Metal
post Jun 27 2022, 00:11:52
Post #1

Правь статус, ####!111
**************
Group: Металариец
Posts: 30,888
Releases: 22762
From: Г.Харьков
On Forums: 10 years 6 months
Thanks: 476319 time(s)
Unknown


(IMG:https://metalarea.org/images/audiocovers/2022_Jun/acov_tid366518_thumb.jpg)

*Artist: War Därmen
*Album: Colonization
*Year: 2022
*Genre: Thrash Metal
*Country: Chile (IMG:https://metalarea.org/forum/style_images/flags/Chile.png)
*Format: mp3@CBR320kbps
*Size: 114MB

Tracklist:
1. Sector Alpha 06:25
2. Dyson Sphere 04:34
3. Wolf of Damnation 03:29
4. Colonization 07:37
5. Forgotten in Time 06:14
6. Sector Beta 04:38
7. Anti Entropic Morality 06:11
8. Vy Canis Majoris 10:04
******************************
Total playing time: 49:12




Extended info
Ratanás Drums
See also: Thermonuclear Devastation, ex-Maniac Revenge
Quasar Bass, Vocals (2015-present)
See also: ex-Mevak
Sentinel Guitars (2015-present)
Lukas Guitars (2016-present)
See also: Autotheist


Technical info
(IMG:https://metalarea.org/images/spectrogram/2022_Jun/375a3eecc99ccd5148ee354b9e9b6996.png)
Input File: 05 - Forgotten in Time.mp3
Channels : 2
Sample Rate : 44100
Precision : 16-bit
Duration : 00:06:14.00 = 16493400 samples = 28050 CDDA sectors
File Size : 15.1M
Bit Rate : 324k
Sample Encoding: MPEG audio (layer I, II or III)
Comments :
Title=Forgotten in Time
Artist=War Därmen
Album=Colonization
Tracknumber=5
Year=2022-05-09
Genre=Metal
Discnumber=1



Register


Go to the top of the page
  Insert nick Quick quote
+Quote Post
 
Start new topic
Replies (1 - 5)
post Jun 27 2022, 05:17:33
Post #2

hearer & reader
**************
Group: Металариец
Posts: 10,442
Releases: 225
From: Moscow
On Forums: 15 years 2 months
Thanks: 12859 time(s)
Russian Federation


https://www.youtube.com/playlist?list=PLBNC...U3JzwuSKACMEf2-
подвал/гараж какой-то


Thanks:
(1) Andrew,
Go to the top of the page
  Insert nick Quick quote
+Quote Post
post Jun 27 2022, 07:30:52
Post #3

MDM-Thrash Metal
**************
Group: Металариец
Posts: 11,479
Releases: 1602
From: Одесса
On Forums: 15 years 3 months
Thanks: 37779 time(s)
Ukraine


ЦИТАТА(AHBAnep @ Jun 27 2022, 07:17:33) *
подвал/гараж какой-то

В начале 80-х уровень и качество записи и то получше будут. А это действительно какой то самопал рекордс.
Go to the top of the page
  Insert nick Quick quote
+Quote Post
post Jun 27 2022, 11:15:08
Post #4
BAN
Banned till
Dec 15 2022, 12:01:07



Демо-запись жеванного хлеба от новичков без задатков. В топку! Это не металл! Что оно делает на сайте с названием МЕТАЛ арея?
Go to the top of the page
  Insert nick Quick quote
+Quote Post
post Aug 24 2022, 05:21:52
Post #5

i listen to black metal
**************
Group: Металариец
Posts: 3,459
Releases: 144
From: Москва
On Forums: 15 years 11 months
Thanks: 2464 time(s)
Russian Federation


нормально всё- денег на студию найти и всё
Go to the top of the page
  Insert nick Quick quote
+Quote Post
post Aug 24 2022, 08:39:42
Post #6

brutalcesar
**************
Group: Металариец
Posts: 18,593
Releases: 76
From: Рязань
On Forums: 13 years 10 months
Thanks: 10856 time(s)
Russian Federation


Звук глухой. Слишком. Да
Но само качество не паршивое, детализация каждого инструмента достаточная - это общий звук затемнён. Не допускаете, что это задумка авторов?
Go to the top of the page
  Insert nick Quick quote
+Quote Post

Reply to this topicStart new topic
2 User(s) are reading this topic (2 Guests and 0 Anonymous Users)
0 Members:

 



- Lo-Fi Version Support form
Copyrights and abuse reports form
Time is now: 30th November 2022 - 09:12:29