Welcome Guest ( Log In | Register )

> Releases Upload / Добавление релизов

Добавить релиз тут / Click here to add release
Рекомендованные обменники / Recommended file shares

> Section 9 - Sordid Mastication [ep] (2021), Death Metal
post Jun 27 2022, 09:56:21
Post #1

Восемь Литров
********
Group: Металариец
Posts: 893
Releases: 215
On Forums: 3 years 2 months
Thanks: 3870 time(s)
Russian Federation


(IMG:https://metalarea.org/images/audiocovers/2022_Jun/acov_tid366529_thumb.jpg)

*Artist: Section 9
*Album: Sordid Mastication [ep]
*Year: 2021
*Genre: Death Metal
*Country: United Kingdom (IMG:https://metalarea.org/forum/style_images/flags/United%20Kingdom.png)
*Format: mp3@CBR320kbps
*Size: 33MB

Tracklist:
1. Silent Annihilation 03:10
2. Stroke 02:57
3. We Own This Place 02:41
4. Kill You Back 04:50
******************************
Total playing time: 13:38


(IMG:https://metalarea.org/images/youtube.png)



Technical info
(IMG:https://metalarea.org/images/spectrogram/2022_Jun/cbf14188447363bebff235ca664af426.png)
Input File: 03. We Own This Place.mp3
Channels : 2
Sample Rate : 44100
Precision : 16-bit
Duration : 00:02:41.92 = 7140452 samples = 12143.6 CDDA sectors
File Size : 7.02M
Bit Rate : 347k
Sample Encoding: MPEG audio (layer I, II or III)
Comments :
Title=We Own This Place
Artist=Section 9
Album=Sordid Mastication
Tracknumber=03
Year=2021
Genre=Death Metal



Register


Go to the top of the page
  Insert nick Quick quote
+Quote Post
 
Start new topic
Replies (1 - 2)
post Jun 28 2022, 10:47:22
Post #2

Мегаманьяк
***********
Group: Металариец
Posts: 1,740
Releases: 1
From: APATIN, SERBIA, АПАТИН, СЕРБИЯ
On Forums: 14 years 9 months
Thanks: 5180 time(s)



Flac

Register


Thanks:
Go to the top of the page
  Insert nick Quick quote
+Quote Post
post Jun 29 2022, 11:56:09
Post #3

0%Tolerance
**************
Group: Металариец
Posts: 2,059
Releases: 0
On Forums: 9 years 11 months
Thanks: 425 time(s)
Unknown


Тупо мясо ни о чём.
Go to the top of the page
  Insert nick Quick quote
+Quote Post

Reply to this topicStart new topic
1 User(s) are reading this topic (1 Guests and 0 Anonymous Users)
0 Members:

 



- Lo-Fi Version Support form
Copyrights and abuse reports form
Time is now: 17th August 2022 - 11:11:18