Welcome Guest ( Log In | Register )

Объявления

* gmail.com упорно продолжает считать почту с нас "unsolicited" и отбивает в том числе и письма активации, поэтому просьба использовать альтернативные почтовые ящики.
------------
* gmail.com continues reject all mail from us as "unsolicited" (activation mails too) therefore please use alternate mail servers.
> Conjurer - Páthos (2022), Sludge/Doom/Post-Metal (D6)
post Jun 30 2022, 11:18:48
Post #1

Serial Uploader
Group Icon
Group: V.I.P
Posts: 42,772
Releases: 40835
From: Lithuania
On Forums: 16 years 1 week
Thanks: 523831 time(s)
Lithuania


(IMG:https://metalarea.org/images/audiocovers/2022_Jun/acov_tid366607_thumb.jpg)

*Artist: Conjurer
*Album: Páthos
*Year: 2022
*Genre: Sludge/Doom/Post-Metal
*Country: United Kingdom (IMG:https://metalarea.org/forum/style_images/flags/United%20Kingdom.png)
*Format: mp3@CBR320kbps
*Size: 116MB

Tracklist:
01. It Dwells 07:05
02. Rot 06:19
03. All You Will Remember 07:25
04. Basilisk 05:14
05. Those Years, Condemned 07:38
06. Suffer Alone 02:33
07. In Your Wake 06:39
08. Cracks in the Pyre 07:22
******************************
Total playing time: 50:15


Preview 2

(IMG:https://metalarea.org/images/youtube.png)

Technical info
(IMG:https://metalarea.org/images/spectrogram/2022_Jun/b6867815805e244727128959f859f2e0.png)
Input File: 02 - Rot.mp3
Channels : 2
Sample Rate : 44100
Precision : 16-bit
Duration : 00:06:19.00 = 16713900 samples = 28425 CDDA sectors
File Size : 15.3M
Bit Rate : 322k
Sample Encoding: MPEG audio (layer I, II or III)
Comments :
Title=Rot
Artist=Conjurer
Album=Páthos
Tracknumber=2
Year=2022-07-01
Discnumber=1



Register


Go to the top of the page
  Insert nick Quick quote
+Quote Post
 
Start new topic
Replies (1 - 6)
post Jul 16 2022, 05:18:44
Post #2

Маньяк
**********
Group: Металариец
Posts: 1,286
Releases: 0
From: Isla de Margarita, Venezuela
On Forums: 5 years 5 months
Thanks: 401 time(s)
Venezuela


Very Good Album (IMG:style_emoticons/default/20.gif)
Go to the top of the page
  Insert nick Quick quote
+Quote Post
post Dec 6 2022, 12:04:12
Post #3

Group: Дух
Posts: 5
Releases: 0
On Forums: 5 years 11 months
Thanks: 0 time(s)
Egypt


mega link not working ?!
Go to the top of the page
  Insert nick Quick quote
+Quote Post
post Jan 20 2023, 13:39:00
Post #4

Мегаманьяк
***********
Group: Металариец
Posts: 1,839
Releases: 10
On Forums: 15 years 5 months
Thanks: 185 time(s)
Germany


Please, re-upload.
Go to the top of the page
  Insert nick Quick quote
+Quote Post
post Jan 23 2023, 17:53:55
Post #5

Ледоруб
**************
Group: Металариец
Posts: 33,650
Releases: 0
From: Санкт-Петербург
On Forums: 14 years 9 months
Thanks: 11753 time(s)
Russian Federation


Блин, забыл послушать.
Go to the top of the page
  Insert nick Quick quote
+Quote Post
post Jan 30 2023, 16:13:29
Post #6

Правь статус, ####!111
**************
Group: Металариец
Posts: 6,135
Releases: 0
On Forums: 5 years 11 months
Thanks: 19928 time(s)
Russian Federation


116 mb/320 kbps
Register


Thanks:
(1) Norge,
Go to the top of the page
  Insert nick Quick quote
+Quote Post
post Feb 22 2023, 20:50:40
Post #7

Ледоруб
**************
Group: Металариец
Posts: 33,650
Releases: 0
From: Санкт-Петербург
On Forums: 14 years 9 months
Thanks: 11753 time(s)
Russian Federation


ЦИТАТА(deathic @ 20th January 2023 - 15:39:00) *
Please, re-upload.

Ты скачал?
Go to the top of the page
  Insert nick Quick quote
+Quote Post

Reply to this topicStart new topic
1 User(s) are reading this topic (1 Guests and 0 Anonymous Users)
0 Members:

 



- Lo-Fi Version Support form
Copyrights and abuse reports form
Time is now: 17th June 2024 - 23:17:40