Welcome Guest ( Log In | Register )

> Tovtra - Lost Streams [demo] (2021), Raw Pagan/Black Metal
post Jun 30 2022, 22:48:28
Post #1

Absorbence
**************
Group: Металариец
Posts: 2,136
Releases: 424
From: Vastland Abyss of Cthulhu
On Forums: 15 years 10 months
Thanks: 7266 time(s)
United States


(IMG:https://metalarea.org/images/audiocovers/2022_Jun/acov_tid366664_thumb.jpg)

*Artist: Tovtra
*Album: Lost Streams [demo]
*Year: 2021
*Genre: Raw Pagan/Black Metal
*Country: Ukraine (IMG:https://metalarea.org/forum/style_images/flags/Ukraine.png)
*Format: mp3@CBR320kbps
*Size: 59MB

Tracklist:
1. Intro 1:12
2. Чарівні обійми 6:48
3. Black Runes 4:59
4. Послухай, сину 8:09
5. Рушив ясир 4:42
******************************
Total playing time: 25:50



Technical info
(IMG:https://metalarea.org/images/spectrogram/2022_Jun/2f78ade75dcfb502f684e95bf97b1923.png)
Input File: 02. Чарівні обійми.mp3
Channels : 2
Sample Rate : 44100
Precision : 16-bit
Duration : 00:06:48.37 = 18009205 samples = 30627.9 CDDA sectors
File Size : 16.3M
Bit Rate : 320k
Sample Encoding: MPEG audio (layer I, II or III)
Comments :
Title=Чарівні обійми
Artist=Tovtra
Album=Lost Streams
Tracknumber=02/05
Year=2021-00-00
Genre=138



Register


Go to the top of the page
  Insert nick Quick quote
+Quote Post
 
Start new topic
Replies (1 - 2)
post Jul 2 2022, 08:26:13
Post #2

Три Литра
***
Group: Завсегдатай
Posts: 256
Releases: 0
On Forums: 12 years 9 months
Thanks: 85 time(s)
Russian Federation


Дудка здесь явно лишняя
Go to the top of the page
  Insert nick Quick quote
+Quote Post
post Jul 7 2022, 09:25:59
Post #3

0%Tolerance
**************
Group: Металариец
Posts: 2,100
Releases: 0
On Forums: 10 years 1 week
Thanks: 435 time(s)
Unknown


ЦИТАТА(igore2911 @ Jul 2 2022, 08:26:13) *
Дудка здесь явно лишняя

Как ещё 80 процентов воспроизводимого стаффом прочего музыкального шлака. В 20-и процах - годнота.
Go to the top of the page
  Insert nick Quick quote
+Quote Post

Reply to this topicStart new topic
1 User(s) are reading this topic (1 Guests and 0 Anonymous Users)
0 Members:

 



- Lo-Fi Version Support form
Copyrights and abuse reports form
Time is now: 25th September 2022 - 09:26:27