Welcome Guest ( Log In | Register )

 
Reply to this topicStart new topic
> Orthodox - Proceed (2022), Experimental Doom Metal (D)
post Jul 1 2022, 14:07:07
Post #1

Правь статус, ####!111
**************
Group: Металариец
Posts: 4,837
Releases: 3267
On Forums: 12 years 2 months
Thanks: 58878 time(s)
Russian Federation


(IMG:https://metalarea.org/images/audiocovers/2022_Jul/acov_tid366686_thumb.jpg)

*Artist: Orthodox
*Album: Proceed
*Year: 2022
*Genre: Experimental Doom Metal
*Country: Spain (IMG:https://metalarea.org/forum/style_images/flags/Spain.png)
*Format: mp3@CBR320kbps
*Size: 99MB

Tracklist:
1.Past Seers 07:03
2.Abendrot 04:51
3.Rabid God 04:26
4.Starve 05:57
5.The Son, The Sword, The Bread 09:42
6.The Long Defeat 10:15
******************************
Total playing time: 42:14



Technical info
(IMG:https://metalarea.org/images/spectrogram/2022_Jul/e20d778bb95d981bcb55dcfb95a7f8e3.png)
Input File: 02 - Abendrot.mp3
Channels : 2
Sample Rate : 44100
Precision : 16-bit
Duration : 00:04:52.07 = 12880199 samples = 21905.1 CDDA sectors
File Size : 12.5M
Bit Rate : 342k
Sample Encoding: MPEG audio (layer I, II or III)
Comments :
Title=Abendrot
Artist=Orthodox
Album=Proceed
Tracknumber=02
Year=2022
Genre=Doom Metal



Register


Go to the top of the page
  Insert nick Quick quote
+Quote Post

Reply to this topicStart new topic
1 User(s) are reading this topic (1 Guests and 0 Anonymous Users)
0 Members:

 



- Lo-Fi Version Support form
Copyrights and abuse reports form
Time is now: 9th February 2023 - 13:29:56