Welcome Guest ( Log In | Register )

> Releases Upload / Добавление релизов

Добавить релиз тут / Click here to add release
Рекомендованные обменники / Recommended file shares

> Protector - Live '89 [live] (2017), Thrash/Death Metal (D)
post Jul 5 2022, 07:39:09
Post #1

Join my religion, or die
**************
Group: Металариец
Posts: 11,176
Releases: 1830
From: Питера
On Forums: 12 years 10 months
Thanks: 24172 time(s)
Russian Federation


(IMG:https://metalarea.org/images/audiocovers/2022_Jul/acov_tid366844_thumb.jpg)

*Artist: Protector
*Album: Live '89 [live]
*Year: 2017
*Genre: Thrash/Death Metal
*Country: Germany (IMG:https://metalarea.org/forum/style_images/flags/Germany.png)
*Format: mp3@CBR320kbps
*Size: 89MB

Tracklist:
01. Capitascism 05:11
02. Sliced, Hacked and Grinded 04:24
03. Misanthropy 02:57
04. Golem 04:31
05. Decadence 03:38
06. Agoraphobia 04:38
07. Atrocities 04:09
08. Kain and Abel 04:19
09. Quasimodo 03:23
10. Urm the Mad 03:14
******************************
Total playing time: 40:24

Preview 1

Technical info
(IMG:https://metalarea.org/images/spectrogram/2022_Jul/53a4af8ff5f39bf8a2318907d76fbf99.png)
Input File: 02 Sliced, Hacked and Grinded.mp3
Channels : 2
Sample Rate : 48000
Precision : 16-bit
Duration : 00:04:24.74 = 12707568 samples ~ 19855.6 CDDA sectors
File Size : 10.6M
Bit Rate : 320k
Sample Encoding: MPEG audio (layer I, II or III)
Comments :
Title=Sliced, Hacked And Grinded
Artist=Protector
Album=2017 Live '89
Tracknumber=02/10
Year=2017
Genre=Thrash Metal



Register


Go to the top of the page
  Insert nick Quick quote
+Quote Post
 
Start new topic
Replies (1 - 1)
post Jul 6 2022, 04:30:41
Post #2

Литр
*
Group: Подсевший
Posts: 86
Releases: 11
On Forums: 4 years 6 months
Thanks: 320 time(s)
Guatemala


*Recorded live at Tor 3, Düsseldorf, Germany, November 27th 1989 M. Missy´s last show..!!


Thanks:
Go to the top of the page
  Insert nick Quick quote
+Quote Post

Reply to this topicStart new topic
1 User(s) are reading this topic (1 Guests and 0 Anonymous Users)
0 Members:

 



- Lo-Fi Version Support form
Copyrights and abuse reports form
Time is now: 17th August 2022 - 10:47:38