Welcome Guest ( Log In | Register )

> Releases Upload / Добавление релизов

Добавить релиз тут / Click here to add release
Рекомендованные обменники / Recommended file shares

> The Deniers - Corona Avant​-​garde [ep] (2022), Thrash Metal
post Jul 5 2022, 13:48:53
Post #1

Правь статус, ####!111
**************
Group: Металариец
Posts: 29,954
Releases: 22044
From: Г.Харьков
On Forums: 10 years 3 months
Thanks: 458704 time(s)
Unknown


(IMG:https://metalarea.org/images/audiocovers/2022_Jul/acov_tid366849_thumb.jpg)

*Artist: The Deniers
*Album: Corona Avant​-​garde [ep]
*Year: 2022
*Genre: Thrash Metal
*Country: United States (IMG:https://metalarea.org/forum/style_images/flags/United%20States.png)
*Format: mp3@CBR320kbps
*Size: 50MB

Tracklist:
1. Corona Deniers 02:04
2. The Pfizer Ghetto Uprising 03:12
3. Corona Avant-garde 02:36
4. I.M.F 03:52
5. Vaccines and Blue Pills 02:28
6. We Shall Prevail 05:21
7. Love the Virus (Manny Fingerz cover) 01:38
******************************
Total playing time: 21:11




Extended info
Paul Denier Drums
Kevin Denier Guitars, Bass, Vocals



Technical info
(IMG:https://metalarea.org/images/spectrogram/2022_Jul/5416ead40a687c84e1f39e31b29b5a9a.png)
Input File: The Deniers - Corona Avant-garde - 06 We Shall Prevail.mp3
Channels : 2
Sample Rate : 44100
Precision : 16-bit
Duration : 00:05:21.56 = 14180752 samples = 24116.9 CDDA sectors
File Size : 13.1M
Bit Rate : 325k
Sample Encoding: MPEG audio (layer I, II or III)
Comments :
Title=We Shall Prevail
Artist=The Deniers
Album=Corona Avant-garde
Tracknumber=6
Year=2022



Register


Go to the top of the page
  Insert nick Quick quote
+Quote Post
 
Start new topic
Replies (1 - 1)
post Jul 6 2022, 14:37:42
Post #2

0%Tolerance
**************
Group: Металариец
Posts: 2,059
Releases: 0
On Forums: 9 years 11 months
Thanks: 425 time(s)
Unknown


Лютейший трэшило. За редким исключением, как в данном конкретном случае, не хватило хронометража. Только прокачало как следует и всё, конец. (IMG:style_emoticons/default/1488.gif) Короче - крайне угарно--патлотрясный трэш митол, даже как-то по хеp на идейно-идеологическую ковЫд-антиваксерскую составляющую/концепцию.
Go to the top of the page
  Insert nick Quick quote
+Quote Post

Reply to this topicStart new topic
1 User(s) are reading this topic (1 Guests and 0 Anonymous Users)
0 Members:

 



- Lo-Fi Version Support form
Copyrights and abuse reports form
Time is now: 17th August 2022 - 11:41:27