Welcome Guest ( Log In | Register )

> Releases Upload / Добавление релизов

Добавить релиз тут / Click here to add release
Рекомендованные обменники / Recommended file shares

 
Reply to this topicStart new topic
> War Machine - Unknown Soldier (1986), Heavy Metal/Nwobhm
post Jul 6 2022, 13:35:06
Post #1

Четыре Литра
****
Group: Металариец
Posts: 324
Releases: 200
On Forums: 13 years 5 months
Thanks: 2408 time(s)
Russian Federation


(IMG:https://metalarea.org/images/audiocovers/2022_Jul/acov_tid366882_thumb.jpg)

*Artist: War Machine
*Album: Unknown Soldier
*Year: 1986
*Genre: Heavy Metal/Nwobhm
*Country: United Kingdom (IMG:https://metalarea.org/forum/style_images/flags/United%20Kingdom.png)
*Format: mp3@CBR320kbps
*Size: 74MB

Tracklist:
01. Sacred Hold 03:36
02. On The Edge 03:19
03. Power 04:31
04. No Time 03:30
05. Dangerous 04:05
06. Can't Wait 04:42
07. No Place To Hide 03:41
08. Warrior 05:27
******************************
Total playing time: 32:51

(IMG:https://metalarea.org/images/youtube.png)

Extended info
My rip exclusively for Metalarea.


Technical info
(IMG:https://metalarea.org/images/spectrogram/2022_Jul/2de68879118d4b9d7a0ebeda3f961b68.png)
Input File: 01 - Sacred Hold.mp3
Channels : 2
Sample Rate : 44100
Precision : 16-bit
Duration : 00:03:36.98 = 9568774 samples = 16273.4 CDDA sectors
File Size : 8.68M
Bit Rate : 320k
Sample Encoding: MPEG audio (layer I, II or III)
Comments :
Title=Sacred Hold
Artist=WAR MACHINE
Album=Unknown Soldier
Tracknumber=1
Year=1986



Register


Go to the top of the page
  Insert nick Quick quote
+Quote Post

Reply to this topicStart new topic
1 User(s) are reading this topic (1 Guests and 0 Anonymous Users)
0 Members:

 



- Lo-Fi Version Support form
Copyrights and abuse reports form
Time is now: 11th August 2022 - 01:29:33