Welcome Guest ( Log In | Register )

> Natura Aeternum - Reminiscencia (2022), Epic/Atmospheric Black Metal/Ambient (D4)
post Jul 6 2022, 17:39:47
Post #1

Правь статус, ####!111
**************
Group: Металариец
Posts: 30,924
Releases: 22794
From: Г.Харьков
On Forums: 10 years 6 months
Thanks: 477015 time(s)
Unknown


(IMG:https://metalarea.org/images/audiocovers/2022_Jul/acov_tid366886_thumb.jpg)

*Artist: Natura Aeternum
*Album: Reminiscencia
*Year: 2022
*Genre: Epic/Atmospheric Black Metal/Ambient
*Country: Colombia (IMG:https://metalarea.org/forum/style_images/flags/Colombia.png)
*Format: mp3@CBR320kbps
*Size: 104MB

Tracklist:
1. Melodias 02:04 instrumental
2. La nieve es fantasía 06:27
3. Atrapado en la nieve 09:07
4. Ermitaño 04:12
5. Alfa 07:12
6. Alientos de seguir 10:42
7. Lobo 04:56 instrumental
******************************
Total playing time: 44:40




Extended info
Alexis Salazar All instruments, Vocals (2019-present)
See also: Killer Klown, The Mystic Forest, Urban Nightmare, ex-Colourless Room, ex-Spectrum of Eternity
Fernanda Tabares Vocals (2020-present)


Technical info
(IMG:https://metalarea.org/images/spectrogram/2022_Jul/040d0485f0c5a9115a0d0596522bfa28.png)
Input File: Natura Aeternum - Reminiscencia - 05 Alfa.mp3
Channels : 2
Sample Rate : 44100
Precision : 16-bit
Duration : 00:07:12.09 = 19055125 samples = 32406.7 CDDA sectors
File Size : 17.5M
Bit Rate : 324k
Sample Encoding: MPEG audio (layer I, II or III)
Comments :
Title=Alfa
Artist=Natura Aeternum
Album=Reminiscencia
Tracknumber=5
Year=2022



Register


Go to the top of the page
  Insert nick Quick quote
+Quote Post
 
Start new topic
Replies (1 - 5)
post Jul 6 2022, 20:50:37
Post #2

Group: Подсевший
Posts: 41
Releases: 0
On Forums: 3 years 5 months
Thanks: 13 time(s)
Unknown


Инструментальная часть на отлично, но ..... вот вокал (IMG:style_emoticons/default/22.gif) на любителя, плюс еще чистый женский местами, плюс тексты на колумбийском. В общем сильно на любителя, ну и эпика тут никакого. Атмосферик с сильным влиянием эмбиент и интересным минорным пианино.


Thanks:
Go to the top of the page
  Insert nick Quick quote
+Quote Post
post Jul 7 2022, 07:09:11
Post #3

Четыре Литра
****
Group: Металариец
Posts: 373
Releases: 0
From: TheМля
On Forums: 16 years 2 months
Thanks: 128 time(s)
Belarus


Ипатьевский монастырь! Колумбийский язык есть, оказывается, вот темнота то я.


Go to the top of the page
  Insert nick Quick quote
+Quote Post
post Jul 7 2022, 09:48:14
Post #4

Два Литра
**
Group: Завсегдатай
Posts: 104
Releases: 0
On Forums: 11 months 1 day
Thanks: 27 time(s)
Russian Federation


ЦИТАТА(dimpa @ Jul 7 2022, 11:09:11) *
Ипатьевский монастырь! Колумбийский язык есть, оказывается, вот темнота то я.

в колумбии на испанском балакают.
Go to the top of the page
  Insert nick Quick quote
+Quote Post
post Jul 7 2022, 11:58:30
Post #5

Пять Литров
*****
Group: Металариец
Posts: 409
Releases: 1
On Forums: 15 years 7 months
Thanks: 39 time(s)
Russian Federation


ЦИТАТА(apries @ 7th July 2022 - 11:48:14) *
в колумбии на испанском балакают.

сарказм же
Go to the top of the page
  Insert nick Quick quote
+Quote Post
post Jul 20 2022, 19:33:04
Post #6

Мегаманьяк
***********
Group: Металариец
Posts: 1,579
Releases: 0
On Forums: 13 years 9 months
Thanks: 618 time(s)
South Korea


Thank you, Samaritianin.

Also, for FLAC (as well as 320 kbps and other types), nearly all the band's releases, including this release, are currently downloadable free on the band's BandCamp page (minus 'Will​-​o'​-​the​-​wisp' and 'Last Night.'). Check them out!:

Go to the top of the page
  Insert nick Quick quote
+Quote Post

Reply to this topicStart new topic
2 User(s) are reading this topic (2 Guests and 0 Anonymous Users)
0 Members:

 



- Lo-Fi Version Support form
Copyrights and abuse reports form
Time is now: 3rd December 2022 - 18:04:59