Welcome Guest ( Log In | Register )

> Releases Upload / Добавление релизов

Добавить релиз тут / Click here to add release
Рекомендованные обменники / Recommended file shares

 
Reply to this topicStart new topic
> Demensia - Screamed And Shouted [demo] (2022), Death/Thrash Metal
post Jul 7 2022, 07:02:55
Post #1

Правь статус, ####!111
**************
Group: Металариец
Posts: 3,196
Releases: 1709
On Forums: 11 years 8 months
Thanks: 33361 time(s)
Russian Federation


(IMG:https://metalarea.org/images/audiocovers/2022_Jul/acov_tid366906_thumb.jpg)

*Artist: Demensia
*Album: Screamed And Shouted [demo]
*Year: 2022
*Genre: Death/Thrash Metal
*Country: Indonesia (IMG:https://metalarea.org/forum/style_images/flags/Indonesia.png)
*Format: mp3@CBR320kbps
*Size: 17MB

Tracklist:
1.The Maniacal 03:58
2.All that's Left Behind 03:15
******************************
Total playing time: 7:13



Technical info
(IMG:https://metalarea.org/images/spectrogram/2022_Jul/39a17877998c8924b2caa479fa670647.png)
Input File: 01 - The Maniacal.mp3
Channels : 2
Sample Rate : 44100
Precision : 16-bit
Duration : 00:03:58.20 = 10504620 samples = 17865 CDDA sectors
File Size : 9.72M
Bit Rate : 326k
Sample Encoding: MPEG audio (layer I, II or III)
Comments :
Title=The Maniacal
Artist=Demensia
Album=Screamed and Shouted
Tracknumber=01
Year=2022
Genre=Death/Thrash Metal



Register


Go to the top of the page
  Insert nick Quick quote
+Quote Post

Reply to this topicStart new topic
1 User(s) are reading this topic (1 Guests and 0 Anonymous Users)
0 Members:

 



- Lo-Fi Version Support form
Copyrights and abuse reports form
Time is now: 11th August 2022 - 00:12:52