Welcome Guest ( Log In | Register )

> Anticreation - From The Dust Of Embers (2022), Black/Death Metal
post Jul 7 2022, 14:36:04
Post #1

Serial Uploader
Group Icon
Group: V.I.P
Posts: 39,289
Releases: 37423
From: Lithuania
On Forums: 14 years 5 months
Thanks: 469262 time(s)
Lithuania


(IMG:https://metalarea.org/images/audiocovers/2022_Jul/acov_tid366938_thumb.jpg)

*Artist: Anticreation
*Album: From The Dust Of Embers
*Year: 2022
*Genre: Black/Death Metal
*Country: Greece (IMG:https://metalarea.org/forum/style_images/flags/Greece.png)
*Format: mp3@CBR320kbps
*Size: 88MB

Tracklist:
01. Faith's Demystifcation 00:46
02. From the Dust of Embers 04:04
03. The Beauty of Lava 05:44
04. Abomination Reborn 04:50
05. The Last Perception 04:12
06. A Journey Into the Throat of Death 04:35
07. The Swarm 00:45
08. Unborn view 04:25
09. Kathagiasis 04:37
10. The Supreme Terror (Digital Only Bonus Track) 03:16
******************************
Total playing time: 37:14


(IMG:https://metalarea.org/images/youtube.png)

Technical info
(IMG:https://metalarea.org/images/spectrogram/2022_Jul/8b3208665d2e27baa319c217583ed634.png)
Input File: 02 - From the Dust of Embers.mp3
Channels : 2
Sample Rate : 44100
Precision : 16-bit
Duration : 00:04:04.31 = 10774203 samples = 18323.5 CDDA sectors
File Size : 10.0M
Bit Rate : 329k
Sample Encoding: MPEG audio (layer I, II or III)
Comments :
Title=From the Dust of Embers
Artist=Anticreation
Album=From the Dust of Embers
Tracknumber=2
Year=2022
Discnumber=1/1



Register


Go to the top of the page
  Insert nick Quick quote
+Quote Post
 
Start new topic
Replies (1 - 5)
post Jul 8 2022, 06:37:09
Post #2

hearer & reader
**************
Group: Металариец
Posts: 10,442
Releases: 225
From: Moscow
On Forums: 15 years 2 months
Thanks: 12859 time(s)
Russian Federation




Thanks:
Go to the top of the page
  Insert nick Quick quote
+Quote Post
post Jul 9 2022, 21:39:29
Post #3

кручу наждак
**************
Group: Металариец
Posts: 5,800
Releases: 107
From: Самара
On Forums: 12 years 6 months
Thanks: 4549 time(s)
Russian Federation


По части долбы тут все нормально - она, долба, в достаточной степени озверелая и разнообразная, чтобы её было не скучно слушать. К несчастью, всю малину портят слишком частые и продолжительные лоу-темповые фрагменты.


Thanks:
Go to the top of the page
  Insert nick Quick quote
+Quote Post
post Jul 10 2022, 15:23:13
Post #4

Два Литра
**
Group: Завсегдатай
Posts: 110
Releases: 0
From: Харьков
On Forums: 5 years 3 days
Thanks: 32 time(s)
Ukraine


Приятный, мощный альбом. На первое прослушивание только заставляет себя переслушать. Есть думовые моменты. В целом крепкий и не скучный мрачный блэкдэт по всем канонам.


Thanks:
(1) Mencae77,
Go to the top of the page
  Insert nick Quick quote
+Quote Post
post Oct 27 2022, 09:17:46
Post #5

Group: Подсевший
Posts: 30
Releases: 1
On Forums: 8 years 3 months
Thanks: 24 time(s)
France


re-up please.
Go to the top of the page
  Insert nick Quick quote
+Quote Post
post Oct 27 2022, 10:18:42
Post #6

Group: Подсевший
Posts: 29
Releases: 0
On Forums: 2 years 11 months
Thanks: 4 time(s)
Russian Federation


ЦИТАТА(Gylve @ Oct 27 2022, 09:17:46) *
re-up please.


https://cloud.mail.ru/public/nZmr/tG6Jx2CDQ
Go to the top of the page
  Insert nick Quick quote
+Quote Post

Reply to this topicStart new topic
2 User(s) are reading this topic (2 Guests and 0 Anonymous Users)
0 Members:

 



- Lo-Fi Version Support form
Copyrights and abuse reports form
Time is now: 30th November 2022 - 08:39:21