Welcome Guest ( Log In | Register )

> Meei - The Aftermath (2022), Symphonic/Oriental Metal
post Jul 8 2022, 06:10:43
Post #1

Правь статус, ####!111
**************
Group: Металариец
Posts: 3,565
Releases: 2049
On Forums: 11 years 10 months
Thanks: 39216 time(s)
Russian Federation


(IMG:https://metalarea.org/images/audiocovers/2022_Jul/acov_tid366972_thumb.jpg)

*Artist: Meei
*Album: The Aftermath
*Year: 2022
*Genre: Symphonic/Oriental Metal
*Country: Spain (IMG:https://metalarea.org/forum/style_images/flags/Spain.png)
*Format: mp3@CBR320kbps
*Size: 110MB

Tracklist:
01.Intro 00:51
02.The Condescending Scribe 03:34
03.The Dune 04:03
04.Guilt 04:52
05.The Aftermath 04:43
06.Gilgamesh 00:52
07.Hatshepsut 03:49
08.Alexandria 05:09
09.Aquelarre 03:23
10.Isfet and Maat 04:44
11.Doom (Guilt II) 07:52
12.Tesseract 04:13
******************************
Total playing time: 48:05

(IMG:https://metalarea.org/images/youtube.png)

Technical info
(IMG:https://metalarea.org/images/spectrogram/2022_Jul/779cb94f67e8c01f23007a67d857f654.png)
Input File: 02 - The Condescending Scribe.mp3
Channels : 2
Sample Rate : 44100
Precision : 16-bit
Duration : 00:03:34.09 = 9441281 samples = 16056.6 CDDA sectors
File Size : 8.72M
Bit Rate : 326k
Sample Encoding: MPEG audio (layer I, II or III)
Comments :
Title=The Condescending Scribe
Artist=Meei
Album=The Aftermath
Tracknumber=02
Year=2022
Genre=Metal



Register


Go to the top of the page
  Insert nick Quick quote
+Quote Post
 
Start new topic
Replies (1 - 3)
post Jul 8 2022, 17:19:46
Post #2

к приему виски готов
*********
Group: Металариец
Posts: 914
Releases: 3
From: Украина
On Forums: 13 years 7 months
Thanks: 542 time(s)
Ukraine


весь альбом для ознакомления. Death как то не услышал (IMG:style_emoticons/default/13.gif) https://www.youtube.com/watch?v=DGVh6kk8ZE0


Thanks:
(1) Andrew,
Go to the top of the page
  Insert nick Quick quote
+Quote Post
post Jul 8 2022, 19:48:31
Post #3

MDM-Thrash Metal
**************
Group: Металариец
Posts: 11,392
Releases: 1585
From: Одесса
On Forums: 15 years 1 month
Thanks: 37452 time(s)
Ukraine




Thanks:
Go to the top of the page
  Insert nick Quick quote
+Quote Post
post Aug 1 2022, 00:07:00
Post #4

FOLK METAL FEVER
**************
Group: Металариец
Posts: 2,323
Releases: 6
From: Kyiv
On Forums: 14 years 10 months
Thanks: 301 time(s)
Ukraine


light version of Ignea
Go to the top of the page
  Insert nick Quick quote
+Quote Post

Reply to this topicStart new topic
2 User(s) are reading this topic (2 Guests and 0 Anonymous Users)
0 Members:

 



- Lo-Fi Version Support form
Copyrights and abuse reports form
Time is now: 3rd October 2022 - 09:30:26