Welcome Guest ( Log In | Register )

> Releases Upload / Добавление релизов

Добавить релиз тут / Click here to add release
Рекомендованные обменники / Recommended file shares

> Kruhl - Sanguine Nihilism (2022), Technical/Progressive Deathcore
post Jul 9 2022, 06:53:20
Post #1

Правь статус, ####!111
**************
Group: Металариец
Posts: 29,934
Releases: 22027
From: Г.Харьков
On Forums: 10 years 3 months
Thanks: 458190 time(s)
Unknown


(IMG:https://metalarea.org/images/audiocovers/2022_Jul/acov_tid367014_thumb.jpg)

*Artist: Kruhl
*Album: Sanguine Nihilism
*Year: 2022
*Genre: Technical/Progressive Deathcore
*Country: Canada (IMG:https://metalarea.org/forum/style_images/flags/Canada.png)
*Format: mp3@CBR320kbps
*Size: 124MB

Tracklist:
01. Dark Cosmic Inflation 06:05
02. Abjuration of all Reason 04:42
03. Blinded by Conviction 05:12
04. Bereft of Human Nature 05:48
05. Status Quo 05:03
06. Zealous Fulmination 05:28
07. Homine ex Machina 04:37
08. Sanguine Nihilism 05:31
09. Unleashed Slaughter Evisceration 05:55
10. Religion Annihilation 05:16
******************************
Total playing time: 53:37




Extended info
Peter Lipura Drums
Arjay Lipura Guitars
See also: Threefold Ruin
Earvin Corpus Guitars
Gonzalo Quintana Zunino Vocals
See also: Warpit
Victor Naydenov Bass (2015-present)


Technical info
(IMG:https://metalarea.org/images/spectrogram/2022_Jul/fcf57783ffda9f45ddf398ef08b70c97.png)
Input File: 07 - Homine ex Machina.mp3
Channels : 2
Sample Rate : 44100
Precision : 16-bit
Duration : 00:04:37.00 = 12215700 samples = 20775 CDDA sectors
File Size : 11.2M
Bit Rate : 324k
Sample Encoding: MPEG audio (layer I, II or III)
Comments :
Title=Homine ex Machina
Artist=Kruhl
Album=Sanguine Nihilism
Tracknumber=7
Year=2022-07-09
Genre=Metal
Discnumber=1



Register


Go to the top of the page
  Insert nick Quick quote
+Quote Post
 
Start new topic
Replies (1 - 1)
post Jul 9 2022, 08:29:11
Post #2

Правь статус, ####!111
**************
Group: Металариец
Posts: 29,934
Releases: 22027
From: Г.Харьков
On Forums: 10 years 3 months
Thanks: 458190 time(s)
Unknown


FLAC (Tracks) 438 mb
Register


Go to the top of the page
  Insert nick Quick quote
+Quote Post

Reply to this topicStart new topic
1 User(s) are reading this topic (1 Guests and 0 Anonymous Users)
0 Members:

 



- Lo-Fi Version Support form
Copyrights and abuse reports form
Time is now: 11th August 2022 - 01:09:06