Welcome Guest ( Log In | Register )

> Releases Upload / Добавление релизов

Добавить релиз тут / Click here to add release
Рекомендованные обменники / Recommended file shares

> Sacrificed - Enraged (2018), Heavy Metal (D5)
post Jul 9 2022, 08:21:03
Post #1

Маньяк
**********
Group: Металариец
Posts: 1,465
Releases: 529
From: Саранск
On Forums: 11 years 3 months
Thanks: 5327 time(s)
Russian Federation


(IMG:https://metalarea.org/images/audiocovers/2022_Jul/acov_tid367015_thumb.jpg)

*Artist: Sacrificed
*Album: Enraged
*Year: 2018
*Genre: Heavy Metal
*Country: Brazil (IMG:https://metalarea.org/forum/style_images/flags/Brazil.png)
*Format: mp3@CBR320kbps
*Size: 96MB

Tracklist:
1. Meet Your Fate 04:44
2. Shame 03:55
3. Oblivion 03:45
4. To Whon You Belong 06:27
5. The Unspoken 01:03
6. Spiral Down 05:56
7. Dear Killer 03:49
8. Refugees 03:29
9. Interlude 02:15
10. Thick Skin 04:31
11. Into the Hive 05:37
******************************
Total playing time: 45:31

Technical info
(IMG:https://metalarea.org/images/spectrogram/2022_Jul/20dee37569dff3ece003abecf02ec7e4.png)
Input File: 06. Spiral Down.mp3
Channels : 2
Sample Rate : 44100
Precision : 16-bit
Duration : 00:05:56.36 = 15715300 samples = 26726.7 CDDA sectors
File Size : 14.3M
Bit Rate : 322k
Sample Encoding: MPEG audio (layer I, II or III)
Comments :
Title=Spiral Down
Artist=Sacrificed
Album=Enraged
Tracknumber=06
Year=2018
Genre=Heavy Metal
Discnumber=1



Register


Go to the top of the page
  Insert nick Quick quote
+Quote Post
 
Start new topic
Replies (1 - 1)
post Jul 9 2022, 12:07:50
Post #2

Common dweller of hell
**************
Group: Металариец
Posts: 4,340
Releases: 12
From: Dnipro
On Forums: 14 years 4 weeks
Thanks: 1719 time(s)
Ukraine



Go to the top of the page
  Insert nick Quick quote
+Quote Post

Reply to this topicStart new topic
1 User(s) are reading this topic (1 Guests and 0 Anonymous Users)
0 Members:

 



- Lo-Fi Version Support form
Copyrights and abuse reports form
Time is now: 10th August 2022 - 23:35:55