Welcome Guest ( Log In | Register )

> Between Two Castles - Carpathian Coldness [demo] (2022), Raw Black Metal
post Jul 11 2022, 02:52:48
Post #1

Правь статус, 616
**************
Group: Металариец
Posts: 8,201
Releases: 6508
From: 55°35’N 38°08’E
On Forums: 14 years 4 months
Thanks: 118349 time(s)
Russian Federation


(IMG:https://metalarea.org/images/audiocovers/2022_Jul/acov_tid367073_thumb.jpg)

*Artist: Between Two Castles
*Album: Carpathian Coldness [demo]
*Year: 2022
*Genre: Raw Black Metal
*Country: Slovakia (IMG:https://metalarea.org/forum/style_images/flags/Slovakia.png)
*Format: mp3@CBR320kbps
*Size: 38MB

Tracklist:
1.Carpathian Coldness pt.I 07:53
2.Carpathian Coldness pt.II 08:14
******************************
Total playing time: 16:07



Technical info
(IMG:https://metalarea.org/images/spectrogram/2022_Jul/d3b0b2953e28d37fc365011616e9fad0.png)
Input File: 01 Carpathian Coldness pt.I.mp3
Channels : 2
Sample Rate : 44100
Precision : 16-bit
Duration : 00:07:53.60 = 20885892 samples = 35520.2 CDDA sectors
File Size : 19.1M
Bit Rate : 322k
Sample Encoding: MPEG audio (layer I, II or III)
Comments :
Title=Carpathian Coldness pt.I
Artist=Between Two Castles
Album=Carpathian Coldness
Tracknumber=1
Year=2022
Genre=Black Metal



Register


Go to the top of the page
  Insert nick Quick quote
+Quote Post
 
Start new topic
Replies (1 - 3)
post Jul 13 2022, 06:08:37
Post #2

кручу наждак
**************
Group: Металариец
Posts: 5,800
Releases: 107
From: Самара
On Forums: 12 years 6 months
Thanks: 4549 time(s)
Russian Federation


16 минут сырого долбилова, зачем-то разбитых на два трека. С тем же успехом можно было поделить и на 4, и на 6, и на 8.


Thanks:
(1) Daale,
Go to the top of the page
  Insert nick Quick quote
+Quote Post
post Jul 13 2022, 15:52:04
Post #3

0%Tolerance
**************
Group: Металариец
Posts: 2,315
Releases: 0
On Forums: 10 years 2 months
Thanks: 470 time(s)
Unknown


Национальный колорит, "изображённый" на скрипочке и прикрученный в начале первого и в конце второго треков никак не влияет на общую картинку. Аффтор сего гвна смастерил (сочинил и исполнил на ходу) эту дешёвую подъёппку ровно за столько времени, сколько указано в полном хронометраже сего "произведения ".
Go to the top of the page
  Insert nick Quick quote
+Quote Post
post Jul 22 2022, 13:01:21
Post #4

Austenite
**************
Group: Металариец
Posts: 3,182
Releases: 1
From: Менск
On Forums: 12 years 2 weeks
Thanks: 1432 time(s)
Madagascar


low-fi Atmospheric Black metal, 7/10
Go to the top of the page
  Insert nick Quick quote
+Quote Post

Reply to this topicStart new topic
2 User(s) are reading this topic (2 Guests and 0 Anonymous Users)
0 Members:

 



- Lo-Fi Version Support form
Copyrights and abuse reports form
Time is now: 30th November 2022 - 08:11:06