Welcome Guest ( Log In | Register )

> Denevér - Vámpír (2022), Black Metal
post Jul 11 2022, 16:31:30
Post #1

Четыре Литра
****
Group: Металариец
Posts: 330
Releases: 204
On Forums: 13 years 11 months
Thanks: 2519 time(s)
Russian Federation


(IMG:https://metalarea.org/images/audiocovers/2022_Jul/acov_tid367085_thumb.jpg)

*Artist: Denevér
*Album: Vámpír
*Year: 2022
*Genre: Black Metal
*Country: Hungary (IMG:https://metalarea.org/forum/style_images/flags/Hungary.png)
*Format: mp3@CBR320kbps
*Size: 106MB

Tracklist:
01. A kezdet 01:31
02. A vámpírok korszaka 05:35
03. Éledj vezér! 04:44
04. Átváltoztatás - Vámpír vér 02:12
05. Átváltoztatás 05:30
06. Báthory Erzsébet 05:50
07. Éjfél - Ébredés 02:34
08. Ébredés 04:57
09. Éjjel az erdőben 06:28
10. Érzem a félelmed 04:53
11. A vég 02:37
******************************
Total playing time: 46:51

(IMG:https://metalarea.org/images/youtube.png)
(IMG:https://metalarea.org/images/youtube.png)

Extended info
CD-rip


Technical info
(IMG:https://metalarea.org/images/spectrogram/2022_Jul/1f705f511d97b54be13be88507227ffa.png)
Input File: 02 - A vámpírok korszaka.mp3
Channels : 2
Sample Rate : 44100
Precision : 16-bit
Duration : 00:05:35.16 = 14780512 samples = 25136.9 CDDA sectors
File Size : 13.4M
Bit Rate : 320k
Sample Encoding: MPEG audio (layer I, II or III)
Comments :
Title=A vámpírok korszaka
Artist=DENEVÉR
Album=Vámpír
Tracknumber=2
Year=2022



Register


Go to the top of the page
  Insert nick Quick quote
+Quote Post
 
Start new topic
Replies (1 - 1)
post Jul 22 2022, 07:05:39
Post #2

Group: Подсевший
Posts: 24
Releases: 0
On Forums: 15 years 8 months
Thanks: 15 time(s)
Russian Federation


Отличный альбом, просто класс!
Go to the top of the page
  Insert nick Quick quote
+Quote Post

Reply to this topicStart new topic
1 User(s) are reading this topic (1 Guests and 0 Anonymous Users)
0 Members:

 



- Lo-Fi Version Support form
Copyrights and abuse reports form
Time is now: 9th February 2023 - 13:37:15