Welcome Guest ( Log In | Register )

> Black Altar & Vulture Lord - Deathiah Manifesto [split] (2022), Black Metal | Black/Thrash Metal (D)(D)
post Jul 12 2022, 03:55:23
Post #1

Правь статус, ####!111
**************
Group: Металариец
Posts: 4,128
Releases: 2594
On Forums: 12 years 2 weeks
Thanks: 47278 time(s)
Russian Federation


(IMG:https://metalarea.org/images/audiocovers/2022_Jul/acov_tid367103_thumb.jpg)

*Artist: Black Altar & Vulture Lord
*Album: Deathiah Manifesto [split]
*Year: 2022
*Genre: Black Metal | Black/Thrash Metal
*Country: Poland (IMG:https://metalarea.org/forum/style_images/flags/Poland.png) | Norway (IMG:https://metalarea.org/forum/style_images/flags/Norway.png)
*Format: mp3@CBR320kbps
*Size: 64MB

Tracklist:
Black Altar:
1.Intro 02:00
2.Sacrilegious Congregation 04:47
3.Nyx 04:42
4.Outro 01:20
Vulture Lord:
5.Dominios Of Death 02:59
6.Hark! The Hymns Of War 03:42
7.Bloodstained Ritualknives 03:00
8.Usurper, Thy Name Is Death 05:00
******************************
Total playing time: 27:30



Technical info
(IMG:https://metalarea.org/images/spectrogram/2022_Jul/8d4e13163f9f1d4a432bac81ebdc09bb.png)
Input File: 02. Sacrilegious Congregation.mp3
Channels : 2
Sample Rate : 44100
Precision : 16-bit
Duration : 00:04:47.00 = 12656700 samples = 21525 CDDA sectors
File Size : 12.0M
Bit Rate : 336k
Sample Encoding: MPEG audio (layer I, II or III)
Comments :
Title=Sacrilegious Congregation
Artist=Black Altar
Album=Deathiah Manifesto
Tracknumber=02
Year=2022
Genre=Metal



Register


Go to the top of the page
  Insert nick Quick quote
+Quote Post
 
Start new topic
Replies (1 - 1)
post Jul 13 2022, 14:13:52
Post #2
BAN
RO till
Dec 7 2022, 19:26:25



Жирнючий сплит. Обе банды отстрелялись отлично. Поляки выдали каноничную, фундаментальую блэчину. Норвеги качёвый, старошкольный блэк трэш, одна из вещей отчётливо напоминает Venom.


Thanks:
(1) Occultas,
Go to the top of the page
  Insert nick Quick quote
+Quote Post

Reply to this topicStart new topic
2 User(s) are reading this topic (2 Guests and 0 Anonymous Users)
0 Members:

 



- Lo-Fi Version Support form
Copyrights and abuse reports form
Time is now: 3rd December 2022 - 17:59:21