Welcome Guest ( Log In | Register )

> Releases Upload / Добавление релизов

Добавить релиз тут / Click here to add release
Рекомендованные обменники / Recommended file shares

> Grenadier - Trumpets Blare In Blazing Glory (2022), Melodic Death Metal
post Jul 12 2022, 12:29:24
Post #1

Правь статус, ####!111
**************
Group: Металариец
Posts: 3,202
Releases: 1714
On Forums: 11 years 8 months
Thanks: 33390 time(s)
Russian Federation


(IMG:https://metalarea.org/images/audiocovers/2022_Jul/acov_tid367109_thumb.jpg)

*Artist: Grenadier
*Album: Trumpets Blare In Blazing Glory
*Year: 2022
*Genre: Melodic Death Metal
*Country: Canada (IMG:https://metalarea.org/forum/style_images/flags/Canada.png)
*Format: mp3@CBR320kbps
*Size: 84MB

Tracklist:
1.Atrocity Cycle 05:18
2.Storm Attrition 03:16
3.Commending the Imperial 05:40
4.The Napoleonic Code 04:26
5.The Levant Sultanate 04:51
6.Trumpets Blare in Blazing Glory 05:59
7.Plight of the Naath 07:31
******************************
Total playing time: 37:01



Technical info
(IMG:https://metalarea.org/images/spectrogram/2022_Jul/a5527626bf6f1aa4e8722177746f0293.png)
Input File: 02 Storm Attrition.mp3
Channels : 2
Sample Rate : 44100
Precision : 16-bit
Duration : 00:03:16.12 = 8648672 samples = 14708.6 CDDA sectors
File Size : 7.96M
Bit Rate : 325k
Sample Encoding: MPEG audio (layer I, II or III)
Comments :
Title=Storm Attrition
Artist=Grenadier
Album=Trumpets Blare in Blazing Glory
Tracknumber=02
Year=2022
Genre=Melodic Death Metal



Register


Go to the top of the page
  Insert nick Quick quote
+Quote Post
 
Start new topic
Replies (1 - 6)
post Jul 12 2022, 19:58:29
Post #2

MDM-Thrash Metal
**************
Group: Металариец
Posts: 11,324
Releases: 1571
From: Одесса
On Forums: 15 years 2 days
Thanks: 36946 time(s)
Ukraine


https://www.youtube.com/watch?v=g7zkbXUlZgk
https://www.youtube.com/watch?v=6IkgkhmhVP8
https://www.youtube.com/watch?v=lypwZ2N1sVg

Олд скульненько, без соплей и новомодства, но без наявности хитов, так для ознакомления, не больше.


Thanks:
(1) Izverg,
Go to the top of the page
  Insert nick Quick quote
+Quote Post
post Jul 12 2022, 22:10:01
Post #3

Это просто место… где все подошло к концу.
**************
Group: Металариец
Posts: 6,618
Releases: 0
From: Страны Мамонтов
On Forums: 15 years 5 months
Thanks: 2633 time(s)
Antarctica


ЦИТАТА(Andrew @ Jul 12 2022, 21:58:29) *
https://www.youtube.com/watch?v=g7zkbXUlZgk
https://www.youtube.com/watch?v=6IkgkhmhVP8
https://www.youtube.com/watch?v=lypwZ2N1sVg

Олд скульненько, без соплей и новомодства, но без наявности хитов, так для ознакомления, не больше.

А мне прям залетел альбом. 5/5, вот так залетел (IMG:style_emoticons/default/20.gif)


Thanks:
(1) Izverg,
Go to the top of the page
  Insert nick Quick quote
+Quote Post
post Jul 14 2022, 14:13:36
Post #4

0%Tolerance
**************
Group: Металариец
Posts: 2,059
Releases: 0
On Forums: 9 years 10 months
Thanks: 425 time(s)
Unknown


В стопяццотпервый раз сыграно очередными никто ни о чём.
Go to the top of the page
  Insert nick Quick quote
+Quote Post
post Jul 15 2022, 11:02:13
Post #5

Два Литра
**
Group: Завсегдатай
Posts: 125
Releases: 0
From: Одесса
On Forums: 13 years 3 months
Thanks: 36 time(s)
Ukraine


8/10
Go to the top of the page
  Insert nick Quick quote
+Quote Post
post Jul 22 2022, 19:42:24
Post #6

Пять Литров
*****
Group: Металариец
Posts: 488
Releases: 0
From: Город Герой Москва!
On Forums: 15 years 11 months
Thanks: 36 time(s)
Russian Federation


Для фона сойдёт, не более.
Go to the top of the page
  Insert nick Quick quote
+Quote Post
post Jul 24 2022, 14:57:39
Post #7

Восемь Литров
********
Group: Металариец
Posts: 814
Releases: 0
From: Нижний Новгород
On Forums: 12 years 9 months
Thanks: 194 time(s)
Russian Federation


УГ. Совсем простенько и явно не для 2022 года.
Go to the top of the page
  Insert nick Quick quote
+Quote Post

Reply to this topicStart new topic
1 User(s) are reading this topic (1 Guests and 0 Anonymous Users)
0 Members:

 



- Lo-Fi Version Support form
Copyrights and abuse reports form
Time is now: 11th August 2022 - 18:59:18