Welcome Guest ( Log In | Register )

> Graveyard Of Shadows - Abyssal (2022), Melodic Doom/Death Metal
post Jul 12 2022, 15:19:08
Post #1

Правь статус, ####!111
**************
Group: Металариец
Posts: 30,923
Releases: 22794
From: Г.Харьков
On Forums: 10 years 6 months
Thanks: 477011 time(s)
Unknown


(IMG:https://metalarea.org/images/audiocovers/2022_Jul/acov_tid367112_thumb.jpg)

*Artist: Graveyard Of Shadows
*Album: Abyssal
*Year: 2022
*Genre: Melodic Doom/Death Metal
*Country: Brazil (IMG:https://metalarea.org/forum/style_images/flags/Brazil.png)
*Format: mp3@CBR320kbps
*Size: 122MB

Tracklist:
01. Rain of Solitude 02:14
02. A Cemetery of Shadows 06:10
03. The Black Curse 05:43
04. New Rose 04:18
05. I Cry to Myself 05:50
06. Tried and Condemned 07:47
07. Agony of Souls 04:30
08. The Prisoner of Tower 04:37
09. Explosion of Anger 03:25
10. War 04:20
11. Systematic Method of Destruction 03:42
******************************
Total playing time: 52:36



Extended info


Technical info
(IMG:https://metalarea.org/images/spectrogram/2022_Jul/5379bdd20d47543f42fe8dc521644b6f.png)
Input File: 07 - Agony of Souls.mp3
Channels : 2
Sample Rate : 44100
Precision : 16-bit
Duration : 00:04:29.00 = 11862900 samples = 20175 CDDA sectors
File Size : 10.9M
Bit Rate : 326k
Sample Encoding: MPEG audio (layer I, II or III)
Comments :
Title=Agony of Souls
Artist=Graveyard of Shadows
Album=Abyssal
Tracknumber=7
Year=2022-07-13
Discnumber=1



Register


Go to the top of the page
  Insert nick Quick quote
+Quote Post
 
Start new topic
Replies (1 - 5)
post Jul 12 2022, 20:05:42
Post #2

Это просто место… где все подошло к концу.
**************
Group: Металариец
Posts: 6,711
Releases: 0
From: Страны Мамонтов
On Forums: 15 years 9 months
Thanks: 2681 time(s)
Antarctica


Второй день что-то не грузится медифайр (IMG:style_emoticons/default/21.gif)
Go to the top of the page
  Insert nick Quick quote
+Quote Post
post Jul 13 2022, 03:03:46
Post #3

Шесть Литров
******
Group: Металариец
Posts: 547
Releases: 0
On Forums: 4 years 10 months
Thanks: 177 time(s)
Belarus


Очень слабый звук и ощущается влияние на материал Black Metal.
Go to the top of the page
  Insert nick Quick quote
+Quote Post
post Jul 13 2022, 14:18:14
Post #4

Common dweller of hell
**************
Group: Металариец
Posts: 4,497
Releases: 12
From: Dnipro
On Forums: 14 years 4 months
Thanks: 1781 time(s)
Ukraine


ЦИТАТА(GRAF @ Jul 13 2022, 05:03:46) *
Очень слабый звук

Так подыми уровень звука через редактор, в чем проблема? (IMG:style_emoticons/default/bye.gif)


Thanks:
Go to the top of the page
  Insert nick Quick quote
+Quote Post
post Jul 13 2022, 14:57:01
Post #5

Group: Подсевший
Posts: 29
Releases: 0
On Forums: 11 months 2 weeks
Thanks: 5 time(s)
Russian Federation


ЦИТАТА(GRAF @ Jul 13 2022, 07:03:46) *
Очень слабый звук и ощущается влияние на материал Black Metal.

Нормальный альбом, кста
Go to the top of the page
  Insert nick Quick quote
+Quote Post
post Jul 13 2022, 18:29:09
Post #6

Leegte
***********
Group: Металариец
Posts: 1,743
Releases: 18
From: Kiovia
On Forums: 10 years 7 months
Thanks: 2584 time(s)
Ukraine


Напряглись бы немного, что ли, и слепили бы клип из современных кадров - их полно - а не из второй мировой. Тем более, в начале прямым текстом намекают.
Go to the top of the page
  Insert nick Quick quote
+Quote Post

Reply to this topicStart new topic
1 User(s) are reading this topic (1 Guests and 0 Anonymous Users)
0 Members:

 



- Lo-Fi Version Support form
Copyrights and abuse reports form
Time is now: 3rd December 2022 - 16:34:16