Welcome Guest ( Log In | Register )

> Inhuman Condition - Fearsick (2022), Death/Thrash Metal
post Jul 14 2022, 11:32:55
Post #1

Group: Дух
Posts: 22
Releases: 22
On Forums: 4 months 3 weeks
Thanks: 832 time(s)
Unknown


(IMG:https://metalarea.org/images/audiocovers/2022_Jul/acov_tid367157_thumb.jpg)

*Artist: Inhuman Condition
*Album: Fearsick
*Year: 2022
*Genre: Death/Thrash Metal
*Country: United States (IMG:https://metalarea.org/forum/style_images/flags/United%20States.png)
*Format: mp3@CBR320kbps
*Size: 93MB

Tracklist:
01. The Mold Testament 04:19
02. Recycled Hate 03:25
03. Caustic Vomit Reveries 03:41
04. I'm Now The Monster 04:35
05. King Con 04:32
06. Hellucid 03:27
07. Wound Collector 04:31
08. Fencewalker 03:26
09. Where Pain Is Infinity 04:13
******************************
Total playing time: 36:09



Technical info
(IMG:https://metalarea.org/images/spectrogram/2022_Jul/3b9e8b39c44d213adf829a06accd12da.png)
Input File: 02 - Recycled Hate.mp3
Channels : 2
Sample Rate : 44100
Precision : 16-bit
Duration : 00:03:25.00 = 9040500 samples = 15375 CDDA sectors
File Size : 8.43M
Bit Rate : 329k
Sample Encoding: MPEG audio (layer I, II or III)
Comments :
Title=Recycled Hate
Artist=Inhuman Condition
Album=Fearsick
Tracknumber=2
Year=2022-07-15
Genre=Smak
Discnumber=1



Register


Go to the top of the page
  Insert nick Quick quote
+Quote Post
 
Start new topic
Replies (1 - 9)
post Jul 14 2022, 20:05:06
Post #2

MDM-Thrash Metal
**************
Group: Металариец
Posts: 11,479
Releases: 1602
From: Одесса
On Forums: 15 years 3 months
Thanks: 37779 time(s)
Ukraine


https://www.youtube.com/watch?v=cFeAZ0qxy4E
https://www.youtube.com/watch?v=N0X6V-EWVPs
https://www.youtube.com/watch?v=NBpxwHwldtY
Go to the top of the page
  Insert nick Quick quote
+Quote Post
post Jul 14 2022, 20:10:04
Post #3

Правь статус, ####!111
**************
Group: Металариец
Posts: 51,932
Releases: 955
On Forums: 13 years 5 months
Thanks: 48743 time(s)
Russian Federation


Репка за аплошку отвецтвенный?

Go to the top of the page
  Insert nick Quick quote
+Quote Post
post Jul 14 2022, 20:37:38
Post #4
BAN
Banned till
Dec 15 2022, 12:01:07



Вялое тремольное чесалово без высекалова
Go to the top of the page
  Insert nick Quick quote
+Quote Post
post Jul 14 2022, 22:17:22
Post #5

Правь статус, ####!111
**************
Group: Металариец
Posts: 51,932
Releases: 955
On Forums: 13 years 5 months
Thanks: 48743 time(s)
Russian Federation


ЦИТАТА(Anarhist815 @ Jul 14 2022, 22:37:38) *
высекалова


Отставить употребять сленг Юрки твоего любимого.

Это Фреду Гитарасту надо высекалово устроить, чтоб он знал, как хаить достойных музыкантов (IMG:style_emoticons/default/15.gif)
Go to the top of the page
  Insert nick Quick quote
+Quote Post
post Jul 14 2022, 23:01:24
Post #6

NOUMENA
**************
Group: Металариец
Posts: 7,624
Releases: 12
On Forums: 13 years 2 weeks
Thanks: 3651 time(s)
Unknown


ЦИТАТА(Anarhist815 @ 14th July 2022 - 22:37:38) *
чесалово без высеркаллова

Go to the top of the page
  Insert nick Quick quote
+Quote Post
post Jul 15 2022, 04:30:46
Post #7
BAN
Banned till
Dec 15 2022, 12:01:07



ЦИТАТА(vosmidesijatye @ Jul 15 2022, 00:17:22) *
Отставить употребять сленг Юрки твоего любимого.

Это Фреду Гитарасту надо высекалово устроить, чтоб он знал, как хаить достойных музыкантов (IMG:style_emoticons/default/15.gif)

Если хаит, то по делу. Смиритесь, великобомбящие.
Go to the top of the page
  Insert nick Quick quote
+Quote Post
post Jul 15 2022, 07:02:09
Post #8

0%Tolerance
**************
Group: Металариец
Posts: 2,315
Releases: 0
On Forums: 10 years 2 months
Thanks: 470 time(s)
Unknown


Нормальная колбасятина, блт.
Go to the top of the page
  Insert nick Quick quote
+Quote Post
post Jul 15 2022, 15:44:39
Post #9

Old School Metal
**************
Group: Металариец
Posts: 4,634
Releases: 0
From: г. Минск
On Forums: 13 years 8 months
Thanks: 12586 time(s)
Belarus


Lossless: FLAC (tracks)
Register


Go to the top of the page
  Insert nick Quick quote
+Quote Post
post Jul 16 2022, 05:36:23
Post #10

кручу наждак
**************
Group: Металариец
Posts: 5,800
Releases: 107
From: Самара
On Forums: 12 years 6 months
Thanks: 4549 time(s)
Russian Federation


Выпустить два альбома-близнеца с перерывом в год - это похоже на авантюру, вдохновленную успехом дебютника. Понятно же, что острота восприятия уже не будет прежней. Хотя, по чеснаку, я бы не сказал, что сабж сильно хуже дебютника. Все тот же кондовый дэт-трэш, разве что трэша стало поменьше.


Thanks:
(1) Occultas,
Go to the top of the page
  Insert nick Quick quote
+Quote Post

Reply to this topicStart new topic
2 User(s) are reading this topic (2 Guests and 0 Anonymous Users)
0 Members:

 



- Lo-Fi Version Support form
Copyrights and abuse reports form
Time is now: 30th November 2022 - 07:52:55