Welcome Guest ( Log In | Register )

> Decaptacon - For Those Who Died (2022), Melodic Death Metal
post Jul 14 2022, 13:23:44
Post #1

Serial Uploader
Group Icon
Group: V.I.P
Posts: 39,314
Releases: 37449
From: Lithuania
On Forums: 14 years 5 months
Thanks: 469550 time(s)
Lithuania


(IMG:https://metalarea.org/images/audiocovers/2022_Jul/acov_tid367176_thumb.jpg)

*Artist: Decaptacon
*Album: For Those Who Died
*Year: 2022
*Genre: Melodic Death Metal
*Country: Germany (IMG:https://metalarea.org/forum/style_images/flags/Germany.png)
*Format: mp3@CBR320kbps
*Size: 150MB

Tracklist:
1. Buried Alive 08:19
2. A New Lease of Life 04:40
3. Until We Drown 05:23
4. Inner Captivity 05:53
5. For Those Who Died 05:57
6. Descending Night 06:30
7. The Oath 05:49
8. Claws of Faith (Interlude) 01:33
9. False Prophecies 05:14
10. Decaptacon 05:25
11. Blackened Skies 06:38
******************************
Total playing time: 1:01:21


Preview 2

(IMG:https://metalarea.org/images/youtube.png)

Technical info
(IMG:https://metalarea.org/images/spectrogram/2022_Jul/97db81b541809ebcaf73a3981145e267.png)
Input File: 02 - A New Lease Of Life.mp3
Channels : 2
Sample Rate : 44100
Precision : 16-bit
Duration : 00:04:40.00 = 12348000 samples = 21000 CDDA sectors
File Size : 12.1M
Bit Rate : 345k
Sample Encoding: MPEG audio (layer I, II or III)
Comments :
Title=A New Lease Of Life
Artist=Decaptacon
Album=For Those Who Died
Tracknumber=2/11
Year=2022
Discnumber=1/1



Register


Go to the top of the page
  Insert nick Quick quote
+Quote Post
 
Start new topic
Replies (1 - 5)
post Jul 15 2022, 18:06:48
Post #2

Common dweller of hell
**************
Group: Металариец
Posts: 4,497
Releases: 12
From: Dnipro
On Forums: 14 years 4 months
Thanks: 1781 time(s)
Ukraine


Что то в них есть (IMG:style_emoticons/default/hmm.gif)


Thanks:
(1) Andrew,
Go to the top of the page
  Insert nick Quick quote
+Quote Post
post Jul 20 2022, 19:23:23
Post #3

MDM-Thrash Metal
**************
Group: Металариец
Posts: 11,482
Releases: 1602
From: Одесса
On Forums: 15 years 3 months
Thanks: 37793 time(s)
Ukraine


https://www.youtube.com/watch?v=s-z9uCO1L_M
https://www.youtube.com/watch?v=hMaNJbaE_AY
https://www.youtube.com/watch?v=aJ6O768Bkxg
https://www.youtube.com/watch?v=ltb1kuJdMAM

Действительно неплохо. Олд скульно, без модерна, без чистоголосья и соплей!
Go to the top of the page
  Insert nick Quick quote
+Quote Post
post Jul 25 2022, 12:04:18
Post #4

Austenite
**************
Group: Металариец
Posts: 3,182
Releases: 1
From: Менск
On Forums: 12 years 2 weeks
Thanks: 1432 time(s)
Madagascar


Finest old school MDM, but not perfectly composed 9/10
Go to the top of the page
  Insert nick Quick quote
+Quote Post
post Aug 5 2022, 17:50:17
Post #5

мизантроп же
**********
Group: Металариец
Posts: 1,238
Releases: 8
From: Москва
On Forums: 15 years 8 months
Thanks: 1223 time(s)
Russian Federation


Интересный коллектив. Выдали весьма приятный мелодетовый альбом без соплей, на приличном звуке, с хорошими мелодиями и соляками. Если всю эту среднетемповость разбавить быстрыми кусками и ужать хронометраж вдвое мог бы получиться материал на порядок лучше. Сохранять не буду, но пару раз послушать стоит.
З.Ы. Предпоследний трек просто отличный.
Go to the top of the page
  Insert nick Quick quote
+Quote Post
post Nov 18 2022, 19:13:30
Post #6

Common dweller of hell
**************
Group: Металариец
Posts: 4,497
Releases: 12
From: Dnipro
On Forums: 14 years 4 months
Thanks: 1781 time(s)
Ukraine


Дайте FLAC!!! (IMG:style_emoticons/default/pray.gif)
Go to the top of the page
  Insert nick Quick quote
+Quote Post

Reply to this topicStart new topic
2 User(s) are reading this topic (2 Guests and 0 Anonymous Users)
0 Members:

 



- Lo-Fi Version Support form
Copyrights and abuse reports form
Time is now: 3rd December 2022 - 17:22:24