Welcome Guest ( Log In | Register )

> Antigama - Whiteout (2022), Death Metal/Grindcore (D)
post Jul 14 2022, 23:48:54
Post #1

Правь статус, ####!111
**************
Group: Металариец
Posts: 35,018
Releases: 26033
From: Г.Харьков
On Forums: 11 years 9 months
Thanks: 559872 time(s)
Ukraine


(IMG:https://metalarea.org/images/audiocovers/2022_Jul/acov_tid367209_thumb.jpg)

*Artist: Antigama
*Album: Whiteout
*Year: 2022
*Genre: Death Metal/Grindcore
*Country: Poland (IMG:https://metalarea.org/forum/style_images/flags/Poland.png)
*Format: mp3@CBR320kbps
*Size: 70MB

Tracklist:
1. Undeterminate
2. Debt Pool
3. Holy Hand
4. Dust Farm
5. Disasters
6. Unclear Conversions
7. Align
8. Muteness
9. Hindrance
10. The Howler
11. 2222
******************************
Total playing time: 28:11




Extended info
Sebastian Rokicki Guitars (2000-present)
See also: ex-Dissection, ex-Garden of Worm, ex-Vexation (live), ex-Łeb Prosiaka, ex-C.I.C., ex-Different State, ex-Herman Rarebell
Łukasz Myszkowski Vocals (2000-2008, 2009-present)
See also: Dante, ex-Sparagmos, ex-Łeb Prosiaka
Paweł Jaroszewicz Drums (2012-present)
See also: Batushka, Faust, Obscure Sphinx, Pyorrhoea, Nargaroth (live), Ofermod (live), Symbolical (live), Soul Snatcher, ex-Crionics, ex-Hazael, ex-Nerve (live), ex-Horn Impaler, ex-No Emotions (live), Blindead 23, Hellium, ex-Christ Agony, ex-Hate, ex-Hell-Born, ex-Lost Soul, ex-Redemptor, ex-Thy Disease, ex-Vader, ex-War-saw, ex-Belphegor (live), ex-Deathbringer (live), ex-Decapitated (live), ex-Deivos (live), ex-Virgin Snatch (live), ex-Interior, ex-Thunderwar (live), ex-Rootwater, ex-Timo Tolkki's Infinite Visions
Sebastian Kucharski Bass (2014-present)
See also: ex-Ketha, ex-Mess Age, ex-Rape on Mind, ex-Fuzz


Technical info
(IMG:https://metalarea.org/images/spectrogram/2022_Jul/4892a02caa9b4dca14462243253a1c03.png)
Input File: 09. Hindrance.mp3
Channels : 2
Sample Rate : 44100
Precision : 16-bit
Duration : 00:03:11.13 = 8428613 samples = 14334.4 CDDA sectors
File Size : 8.03M
Bit Rate : 336k
Sample Encoding: MPEG audio (layer I, II or III)
Comments :
Title=Hindrance
Artist=Antigama
Album=Whiteout
Tracknumber=09
Year=2022
Genre=Metal



Register


Go to the top of the page
  Insert nick Quick quote
+Quote Post
 
Start new topic
Replies (1 - 5)
post Jul 15 2022, 03:23:41
Post #2

Правь статус, ####!111
**************
Group: Металариец
Posts: 35,018
Releases: 26033
From: Г.Харьков
On Forums: 11 years 9 months
Thanks: 559872 time(s)
Ukraine


FLAC (Tracks) 376 mb
Register


Go to the top of the page
  Insert nick Quick quote
+Quote Post
post Jul 31 2022, 13:00:47
Post #3

Group: Подсевший
Posts: 19
Releases: 0
From: ровеньки
On Forums: 4 years 9 months
Thanks: 2 time(s)
Ukraine


Отличный альбом
Go to the top of the page
  Insert nick Quick quote
+Quote Post
post Aug 1 2022, 09:47:26
Post #4
BAN
Banned till
Mar 17 2024, 02:44:34



Несколько однотипная, достаточно напористая, скорострельная дезуха.
Go to the top of the page
  Insert nick Quick quote
+Quote Post
post Sep 13 2022, 09:10:31
Post #5

Full-of-Hate
**************
Group: Металариец
Posts: 5,648
Releases: 0
From: Moscow
On Forums: 14 years 7 months
Thanks: 6856 time(s)
Russian Federation


Бодрый стафф.
Чем-то напоминаем ранний Роттен Саунд и одновременно поздний Напалм Дэтх.
Атональщина хороша, бас можно было сделать пожирнее, барабанщик молодец.
Go to the top of the page
  Insert nick Quick quote
+Quote Post
post Sep 18 2023, 14:51:51
Post #6

Group: Подсевший
Posts: 19
Releases: 0
On Forums: 10 years 6 months
Thanks: 3 time(s)
Ukraine


ЦИТАТА(Samaritianin @ Jul 15 2022, 05:23:41) *
FLAC (Tracks) 376 mb

Прошу перезалить, кто может, заранее благодарен
Go to the top of the page
  Insert nick Quick quote
+Quote Post

Reply to this topicStart new topic
1 User(s) are reading this topic (1 Guests and 0 Anonymous Users)
0 Members:

 



- Lo-Fi Version Support form
Copyrights and abuse reports form
Time is now: 23rd February 2024 - 12:28:49