Welcome Guest ( Log In | Register )

> Releases Upload / Добавление релизов

Добавить релиз тут / Click here to add release
Рекомендованные обменники / Recommended file shares

> Atrate - On The Verge Of What We Belong To (2022), Avant-Garde Black Metal
post Jul 15 2022, 13:30:21
Post #1

Правь статус, 616
**************
Group: Металариец
Posts: 7,776
Releases: 6142
From: 55°35’N 38°08’E
On Forums: 14 years 1 month
Thanks: 112840 time(s)
Russian Federation


(IMG:https://metalarea.org/images/audiocovers/2022_Jul/acov_tid367226_thumb.jpg)

*Artist: Atrate
*Album: On The Verge Of What We Belong To
*Year: 2022
*Genre: Avant-Garde Black Metal
*Country: Romania (IMG:https://metalarea.org/forum/style_images/flags/Romania.png)
*Format: mp3@CBR320kbps
*Size: 73MB

Tracklist:
1.Intrusive Axiom 01:13
2.Waning Remnants 04:44
3.Self-replicating Heralds of Malarkey 05:12
4.The Amaurotic Sons of Aporia 05:09
5.Skin Limited 05:15
6.Ekpyrotic Visions 03:23
7.Deracinated Humanocentrism 05:02
******************************
Total playing time: 29:58



Technical info
(IMG:https://metalarea.org/images/spectrogram/2022_Jul/e57b7d752a2e9d29eeba2491cfe57ed4.png)
Input File: 02 Waning Remnants.mp3
Channels : 2
Sample Rate : 44100
Precision : 16-bit
Duration : 00:04:44.23 = 12534587 samples = 21317.3 CDDA sectors
File Size : 11.6M
Bit Rate : 326k
Sample Encoding: MPEG audio (layer I, II or III)
Comments :
Title=Waning Remnants
Artist=Atrate
Album=On The Verge Of What We Belong To
Tracknumber=2
Year=2022
Genre=Black Metal



Register


Go to the top of the page
  Insert nick Quick quote
+Quote Post
 
Start new topic
Replies (1 - 3)
post Aug 5 2022, 05:22:31
Post #2

0%Tolerance
**************
Group: Металариец
Posts: 2,059
Releases: 0
On Forums: 9 years 10 months
Thanks: 425 time(s)
Unknown


Молдавская кустарщина. В инструментальной части есть редкие годные обороты в диссонансах.
Go to the top of the page
  Insert nick Quick quote
+Quote Post
post Aug 5 2022, 21:28:36
Post #3

Правь статус, ####!111
**************
Group: Металариец
Posts: 2,111
Releases: 0
On Forums: 13 years 5 months
Thanks: 854 time(s)
Antarctica


Стиль немного похож на Ad Nauseam, но по качеству несравнимо - просто, прямо и жидко.
Go to the top of the page
  Insert nick Quick quote
+Quote Post
post Aug 7 2022, 06:36:09
Post #4

Маньяк
**********
Group: Металариец
Posts: 1,352
Releases: 0
On Forums: 13 years 6 months
Thanks: 443 time(s)
South Korea


Thank you, smysl!

Also, for those who are interested in FLAC (as well as 320 kbps and other types), the release is currently downloadable free on 'name your price' basis on the band's BandCamp page that smysl kindly provided above!:

Go to the top of the page
  Insert nick Quick quote
+Quote Post

Reply to this topicStart new topic
2 User(s) are reading this topic (2 Guests and 0 Anonymous Users)
0 Members:

 



- Lo-Fi Version Support form
Copyrights and abuse reports form
Time is now: 15th August 2022 - 23:48:18