Welcome Guest ( Log In | Register )

Объявления

* gmail.com упорно продолжает считать почту с нас "unsolicited" и отбивает в том числе и письма активации, поэтому просьба использовать альтернативные почтовые ящики.
------------
* gmail.com continues reject all mail from us as "unsolicited" (activation mails too) therefore please use alternate mail servers.
> Wintaar - Swansongs (2022), Black Metal (D)
post Jul 15 2022, 17:33:17
Post #1

Правь статус, ####!111
**************
Group: Металариец
Posts: 56,157
Releases: 1213
On Forums: 15 years 2 weeks
Thanks: 55102 time(s)
Russian Federation


(IMG:https://metalarea.org/images/audiocovers/2022_Jul/acov_tid367229_thumb.jpg)

*Artist: Wintaar
*Album: Swansongs
*Year: 2022
*Genre: Black Metal
*Country: Russian Federation (IMG:https://metalarea.org/forum/style_images/flags/Russian%20Federation.png)
*Format: mp3@CBR320kbps
*Size: 113MB

Tracklist:
1. Believer 05:09
2. Call Of The Fullmoon 05:57
3. Try 07:45
4. Ice Wolfpack 03:57
5. Stink Of Existence 06:40
6. No Savior 05:35
7. Triumph 06:00
8. Sinfulness Aksios 07:25
******************************
Total playing time: 48:28



Technical info
(IMG:https://metalarea.org/images/spectrogram/2022_Jul/b49abb4517e142131df79d46b047c3bf.png)
Input File: Wintaar - Swansongs - 07 Triumph.mp3
Channels : 2
Sample Rate : 44100
Precision : 16-bit
Duration : 00:06:00.67 = 15905371 samples = 27050 CDDA sectors
File Size : 14.7M
Bit Rate : 325k
Sample Encoding: MPEG audio (layer I, II or III)
Comments :
Title=Triumph
Artist=Wintaar
Album=Swansongs
Tracknumber=7
Year=2022



Register


Go to the top of the page
  Insert nick Quick quote
+Quote Post
 
Start new topic
Replies (1 - 5)
post Jul 15 2022, 19:28:02
Post #2

Два Литра
**
Group: Завсегдатай
Posts: 154
Releases: 0
On Forums: 2 years 5 months
Thanks: 61 time(s)
Russian Federation




Thanks:
Go to the top of the page
  Insert nick Quick quote
+Quote Post
post Jul 15 2022, 19:37:42
Post #3

Правь статус, ####!111
**************
Group: Металариец
Posts: 56,157
Releases: 1213
On Forums: 15 years 2 weeks
Thanks: 55102 time(s)
Russian Federation


Да не, Женя несмотря на кроличью продуктивность относица к тем редким исключениям, которые говна не позволяют се выпускать, так шо пущай плодоносит, пока водяры хватает для вдохновения.
Go to the top of the page
  Insert nick Quick quote
+Quote Post
post Jul 16 2022, 18:45:00
Post #4

Group: Подсевший
Posts: 25
Releases: 0
From: Симбирск
On Forums: 9 years 1 day
Thanks: 4 time(s)
Russian Federation


Название альбома такое что водяра видимо как раз кончилась
Go to the top of the page
  Insert nick Quick quote
+Quote Post
post Jul 22 2022, 18:15:02
Post #5

Маньяк
**********
Group: Металариец
Posts: 1,131
Releases: 0
From: Warszawa
On Forums: 9 years 6 months
Thanks: 606 time(s)
Poland


320 kbps
Register


Thanks:
Go to the top of the page
  Insert nick Quick quote
+Quote Post
post Jul 23 2022, 07:12:27
Post #6

Четыре Литра
****
Group: Металариец
Posts: 314
Releases: 20
From: Михайловск
On Forums: 14 years 4 months
Thanks: 536 time(s)
Russian Federation


ЦИТАТА(EvgeniusLongus @ Jul 16 2022, 20:45:00) *
Название альбома такое что водяра видимо как раз кончилась


Многие так подумали. Но по факту у всех проектов есть 2-3 альбома наперед. Водяра на месте, в общем, у меня!


Thanks:
Go to the top of the page
  Insert nick Quick quote
+Quote Post

Reply to this topicStart new topic
2 User(s) are reading this topic (2 Guests and 0 Anonymous Users)
0 Members:

 



- Lo-Fi Version Support form
Copyrights and abuse reports form
Time is now: 20th June 2024 - 09:24:57