Welcome Guest ( Log In | Register )

> Releases Upload / Добавление релизов

Добавить релиз тут / Click here to add release
Рекомендованные обменники / Recommended file shares

> Loathfinder & Druj - Aspects Of Oblation [split] (2019), Black/Doom Metal | Death/Doom Metal
post Jul 16 2022, 18:25:34
Post #1

Правь статус, 616
**************
Group: Металариец
Posts: 7,775
Releases: 6141
From: 55°35’N 38°08’E
On Forums: 14 years 1 month
Thanks: 112762 time(s)
Russian Federation


(IMG:https://metalarea.org/images/audiocovers/2022_Jul/acov_tid367268_thumb.jpg)

*Artist: Loathfinder & Druj
*Album: Aspects Of Oblation [split]
*Year: 2019
*Genre: Black/Doom Metal | Death/Doom Metal
*Country: Poland (IMG:https://metalarea.org/forum/style_images/flags/Poland.png) | United States (IMG:https://metalarea.org/forum/style_images/flags/United%20States.png)
*Format: mp3@CBR320kbps
*Size: 77MB

Tracklist:
Loathfinder:
1.Soil of the Starving 06:10
2.XXIX 05:52
3.The Ugliest Crown 07:28
Druj:
4.Thee Insatiable Fever 06:31
5.Divulge 06:09
******************************
Total playing time: 32:10




(IMG:https://metalarea.org/images/youtube.png)

Technical info
(IMG:https://metalarea.org/images/spectrogram/2022_Jul/d7b19959adbca30c39ee49dc36bd7d8b.png)
Input File: 04 DRUJ - Thee Insatiable Fever.mp3
Channels : 2
Sample Rate : 44100
Precision : 16-bit
Duration : 00:06:31.68 = 17273000 samples = 29375.9 CDDA sectors
File Size : 15.9M
Bit Rate : 324k
Sample Encoding: MPEG audio (layer I, II or III)
Comments :
Title=Thee Insatiable Fever
Artist=DRUJ
Album=Aspects of Oblation
Tracknumber=4
Year=2019
Genre=Metal



Register


Go to the top of the page
  Insert nick Quick quote
+Quote Post
 
Start new topic
Replies (1 - 1)
post Jul 19 2022, 19:51:44
Post #2

Маньяк
**********
Group: Металариец
Posts: 1,344
Releases: 0
On Forums: 13 years 5 months
Thanks: 435 time(s)
South Korea


Thank you very much, smysl.

Also, for FLAC (as well as 320 kbps and other types), the release is currently downloadable free on the band's (technically, the label's) BandCamp page.


Go to the top of the page
  Insert nick Quick quote
+Quote Post

Reply to this topicStart new topic
1 User(s) are reading this topic (1 Guests and 0 Anonymous Users)
0 Members:

 



- Lo-Fi Version Support form
Copyrights and abuse reports form
Time is now: 11th August 2022 - 00:30:32