Welcome Guest ( Log In | Register )

> Releases Upload / Добавление релизов

Добавить релиз тут / Click here to add release
Рекомендованные обменники / Recommended file shares

 
Reply to this topicStart new topic
> Vicissitude - Vicissitude [ep] (2021), Black/Death Metal (D4)
post Jul 18 2022, 22:10:21
Post #1

Правь статус, 616
**************
Group: Металариец
Posts: 7,776
Releases: 6142
From: 55°35’N 38°08’E
On Forums: 14 years 1 month
Thanks: 112910 time(s)
Russian Federation


(IMG:https://metalarea.org/images/audiocovers/2022_Jul/acov_tid367355_thumb.jpg)

*Artist: Vicissitude
*Album: Vicissitude [ep]
*Year: 2021
*Genre: Black/Death Metal
*Country: New Zealand (IMG:https://metalarea.org/forum/style_images/flags/New%20Zealand.png)
*Format: mp3@CBR320kbps
*Size: 31MB

Tracklist:
1.IV 05:55
2.VII 06:59
******************************
Total playing time: 12:54




Technical info
(IMG:https://metalarea.org/images/spectrogram/2022_Jul/1c91d4d977c4ef38c98524ef81fb8130.png)
Input File: 01 IV.mp3
Channels : 2
Sample Rate : 44100
Precision : 16-bit
Duration : 00:05:55.58 = 15680858 samples = 26668.1 CDDA sectors
File Size : 14.3M
Bit Rate : 322k
Sample Encoding: MPEG audio (layer I, II or III)
Comments :
Title=IV
Artist=Vicissitude
Album=Vicissitude
Tracknumber=1
Year=2021
Genre=Black/Death Metal



Register


Go to the top of the page
  Insert nick Quick quote
+Quote Post

Reply to this topicStart new topic
1 User(s) are reading this topic (1 Guests and 0 Anonymous Users)
0 Members:

 



- Lo-Fi Version Support form
Copyrights and abuse reports form
Time is now: 17th August 2022 - 11:13:48