Welcome Guest ( Log In | Register )

> Yezdin - Modra Veda (2022), Psychedelic Black/Folk Metal
post Jul 19 2022, 12:14:33
Post #1

Правь статус, ####!111
**************
Group: Металариец
Posts: 30,888
Releases: 22762
From: Г.Харьков
On Forums: 10 years 6 months
Thanks: 476313 time(s)
Unknown


(IMG:https://metalarea.org/images/audiocovers/2022_Jul/acov_tid367368_thumb.jpg)

*Artist: Yezdin
*Album: Modra Veda
*Year: 2022
*Genre: Psychedelic Black/Folk Metal
*Country: Slovenia (IMG:https://metalarea.org/forum/style_images/flags/Slovenia.png)
*Format: mp3@CBR320kbps
*Size: 82MB

Tracklist:
1. At the Pearly Gates of Morning Glory 01:56
2. Riffael 04:19
3. Antične bitke 04:21
4. Drugi padec Rima 03:26
5. Mati sreče (Brugmansia) 03:42
6. Protokol Antahkarana 03:48
7. Stingray chariot 03:09
8. Zlati učitelj 04:52
9. Knez sonca 04:58
10. Nova stran 01:32
******************************
Total playing time: 36:03




Technical info
(IMG:https://metalarea.org/images/spectrogram/2022_Jul/79277a47b865594983a8b72be43c832d.png)
Input File: 08 - Zlati Učitelj.mp3
Channels : 2
Sample Rate : 44100
Precision : 16-bit
Duration : 00:04:53.00 = 12921432 samples = 21975.2 CDDA sectors
File Size : 11.7M
Bit Rate : 320k
Sample Encoding: MPEG audio (layer I, II or III)
Comments :
Title=Zlati Učitelj
Artist=Yezdin
Album=Modra Veda
Tracknumber=8
Year=2022
Genre=Metal



Register


Go to the top of the page
  Insert nick Quick quote
+Quote Post
 
Start new topic
Replies (1 - 5)
post Jul 19 2022, 16:34:25
Post #2

Семь Литров
*******
Group: Металариец
Posts: 776
Releases: 15
From: Brasil - Sao Paulo
On Forums: 2 years 7 months
Thanks: 676 time(s)
Brazil


The cover and logo looks like an old school videogame rpg (IMG:style_emoticons/default/alkash.gif)


Thanks:
Go to the top of the page
  Insert nick Quick quote
+Quote Post
post Jul 20 2022, 18:28:36
Post #3

Мегаманьяк
***********
Group: Металариец
Posts: 1,579
Releases: 0
On Forums: 13 years 9 months
Thanks: 616 time(s)
South Korea


QUOTE(Mencae77 @ Jul 19 2022, 18:34:25) *
The cover and logo looks like an old school videogame rpg (IMG:style_emoticons/default/alkash.gif)


Agreed!

One of their tags is "megaman metal." My search for "megaman (Mega Man)" points to a Japanese video game.

Also, their music sounds so (at least to these ears... a bit like a chiptune...).



Thanks:
Go to the top of the page
  Insert nick Quick quote
+Quote Post
post Jul 21 2022, 06:09:51
Post #4

кручу наждак
**************
Group: Металариец
Posts: 5,800
Releases: 107
From: Самара
On Forums: 12 years 6 months
Thanks: 4549 time(s)
Russian Federation


Ну, как минимум необычно. Разок точно стоит ознакомиться.

ЦИТАТА(kimkayoung @ Jul 20 2022, 18:28:36) *
Also, their music sounds so (at least to these ears... a bit like a chiptune...).

Есть что-то такое. Дисторшированный и металлизированный chiptune.


Thanks:
Go to the top of the page
  Insert nick Quick quote
+Quote Post
post Jul 21 2022, 12:39:21
Post #5

Правь статус, ####!111
**************
Group: Металариец
Posts: 2,174
Releases: 0
On Forums: 13 years 9 months
Thanks: 893 time(s)
Antarctica


ЦИТАТА(judaz @ 21st July 2022 - 08:09:51) *
Есть что-то такое. Дисторшированный и металлизированный chiptune.

Вроде и норм звучит, но когда слышишь блэковый вокал, то тут же пропадает желание слушать.
Go to the top of the page
  Insert nick Quick quote
+Quote Post
post Jul 22 2022, 07:05:32
Post #6

0%Tolerance
**************
Group: Металариец
Posts: 2,315
Releases: 0
On Forums: 10 years 2 months
Thanks: 471 time(s)
Unknown


Блэкховая составляющая здесь не очень-то и многообразна, если бы не связка с фолком . Этакий плясовой блэк - скрепа данной конструкции. Хотелось бы конечно пожёстче чернуху услышать вместо говнеца с пластмассовым звучанием, наваленного в промежутках и на "подтанцовках".
Стафф не в копилку, но погонять пару раз можно.
Go to the top of the page
  Insert nick Quick quote
+Quote Post

Reply to this topicStart new topic
2 User(s) are reading this topic (2 Guests and 0 Anonymous Users)
0 Members:

 



- Lo-Fi Version Support form
Copyrights and abuse reports form
Time is now: 30th November 2022 - 08:44:46