Welcome Guest ( Log In | Register )

> Witchery - Nightside (2022), Blackened Thrash/Speed Metal (D)
post Jul 21 2022, 11:41:59
Post #1

Group: Дух
Posts: 22
Releases: 22
On Forums: 4 months 3 weeks
Thanks: 833 time(s)
Unknown


(IMG:https://metalarea.org/images/audiocovers/2022_Jul/acov_tid367427_thumb.jpg)

*Artist: Witchery
*Album: Nightside
*Year: 2022
*Genre: Blackened Thrash/Speed Metal
*Country: Sweden (IMG:https://metalarea.org/forum/style_images/flags/Sweden.png)
*Format: mp3@CBR320kbps
*Size: 84MB

Tracklist:
01. Witching Hour 03:03
02. Don't Burn the Witch 03:22
03. Storm of the Unborn 04:36
04. Er steht in Flammen 01:45
05. Popecrusher 03:08
06. Left Hand March 04:28
07. Under the Altar 01:30
08. Churchburner 02:31
09. Crucifix and Candle 04:31
10. A Forest of Burning Coffins 02:55
11. Nightside 03:57
******************************
Total playing time: 35:46



Technical info
(IMG:https://metalarea.org/images/spectrogram/2022_Jul/1cd4fbcd551a371390e727ff7863efab.png)
Input File: 04 - Er steht in Flammen.mp3
Channels : 2
Sample Rate : 44100
Precision : 16-bit
Duration : 00:01:45.00 = 4630500 samples = 7875 CDDA sectors
File Size : 4.36M
Bit Rate : 332k
Sample Encoding: MPEG audio (layer I, II or III)
Comments :
Title=Er steht in Flammen
Artist=Witchery
Album=Nightside
Tracknumber=4
Year=2022-07-22
Genre=Uber
Discnumber=1



Register


Go to the top of the page
  Insert nick Quick quote
+Quote Post
 
Start new topic
Replies (1 - 6)
post Jul 21 2022, 17:19:14
Post #2

NOUMENA
**************
Group: Металариец
Posts: 7,626
Releases: 12
On Forums: 13 years 3 weeks
Thanks: 3658 time(s)
Unknown


начинают бесить группы которые не удосуживаются хотя бы часть музыки выкладывать на бендкамп.


Thanks:
(2) Brann, RUSP73,
Go to the top of the page
  Insert nick Quick quote
+Quote Post
post Jul 21 2022, 18:50:17
Post #3

Четыре Литра
****
Group: Металариец
Posts: 350
Releases: 3
From: Украина
On Forums: 4 years 4 months
Thanks: 169 time(s)
Ukraine


ЦИТАТА(Chasm @ Jul 21 2022, 19:19:14) *
начинают бесить группы которые не удосуживаются хотя бы часть музыки выкладывать на бендкамп.

А это обязательно?


Thanks:
Go to the top of the page
  Insert nick Quick quote
+Quote Post
post Jul 22 2022, 15:52:15
Post #4

? ? ? ? ? ? ? ?
*******
Group: Металариец
Posts: 780
Releases: 23
On Forums: 15 years 9 months
Thanks: 585 time(s)
Russian Federation


ЦИТАТА(Chasm @ Jul 21 2022, 19:19:14) *
начинают бесить группы которые не удосуживаются хотя бы часть музыки выкладывать на бендкамп.

Ага, и ещё на рутрекере и в ВК... Что за бред?
Go to the top of the page
  Insert nick Quick quote
+Quote Post
post Jul 23 2022, 14:40:27
Post #5

Common dweller of hell
**************
Group: Металариец
Posts: 4,497
Releases: 12
From: Dnipro
On Forums: 14 years 4 months
Thanks: 1781 time(s)
Ukraine





Thanks:
(1) Chasm,
Go to the top of the page
  Insert nick Quick quote
+Quote Post
post Jul 23 2022, 14:56:11
Post #6

Group: Подсевший
Posts: 32
Releases: 0
From: Россия
On Forums: 11 years 4 months
Thanks: 12 time(s)
Russian Federation


Начинают бесить деятели, которые запрещают просмотр видео в моей стране.


Thanks:
Go to the top of the page
  Insert nick Quick quote
+Quote Post
post Jul 23 2022, 17:50:24
Post #7

NOUMENA
**************
Group: Металариец
Posts: 7,626
Releases: 12
On Forums: 13 years 3 weeks
Thanks: 3658 time(s)
Unknown


ЦИТАТА(Nobrain-Nopain @ 22nd July 2022 - 17:52:15) *
Ага, и ещё на рутрекере и

ну если не видеть разницы между пиратством и тем, чтобы сделать более доступным превью для поклонников этой музыки то можно и так рассуждать. Давно любому адекватному человеку ясно что музыка так или иначе окажется в общем доступе, мб даже раньше релиза, посему сознательный игнор такой площадки как бендкамп и лишние сложности - это, как минимум , странный ход.

Ведь что мне (как не die hard фэну Витчери, которых кмк и в Швеции то нет)по сути остаётся сейчас делать - скачать пиратские мп3, если я хочу осведомится сыграла ли группа что то интересное для меня. Может и сыграла, но мне честно говоря этот момент при имеющемся изобилии не особо важен.


Thanks:
Go to the top of the page
  Insert nick Quick quote
+Quote Post

Reply to this topicStart new topic
2 User(s) are reading this topic (2 Guests and 0 Anonymous Users)
0 Members:

 



- Lo-Fi Version Support form
Copyrights and abuse reports form
Time is now: 3rd December 2022 - 16:10:59