Welcome Guest ( Log In | Register )

 
Reply to this topicStart new topic
> Invicta Miseria - Hermitage In Chains (2022), Raw Black Metal
post Jul 22 2022, 07:02:47
Post #1

Правь статус, 616
**************
Group: Металариец
Posts: 8,590
Releases: 6859
From: 55°35’N 38°08’E
On Forums: 14 years 7 months
Thanks: 123926 time(s)
Russian Federation


(IMG:https://metalarea.org/images/audiocovers/2022_Jul/acov_tid367487_thumb.jpg)

*Artist: Invicta Miseria
*Album: Hermitage In Chains
*Year: 2022
*Genre: Raw Black Metal
*Country: United States (IMG:https://metalarea.org/forum/style_images/flags/United%20States.png) France (IMG:https://metalarea.org/forum/style_images/flags/France.png)
*Format: mp3@CBR320kbps
*Size: 86MB

Tracklist:
1.Everything Still 07:33
2.Hereditary Poison 08:08
3.Coiled Relics 05:14
4.Hermitage 03:14
5.Cursed In Memory 04:36
6.Womb Of Ash 06:41
******************************
Total playing time: 35:26



Extended info
Debut full length from the international entity featuring members of Northern Solitude, Disperser, Tattva & 1789.


Technical info
(IMG:https://metalarea.org/images/spectrogram/2022_Jul/57084f80843a4436b17928e1778b5e1f.png)
Input File: 01 Everything Still.mp3
Channels : 2
Sample Rate : 44100
Precision : 16-bit
Duration : 00:07:33.28 = 19989560 samples = 33995.9 CDDA sectors
File Size : 18.3M
Bit Rate : 322k
Sample Encoding: MPEG audio (layer I, II or III)
Comments :
Title=Everything Still
Artist=Invicta Miseria
Album=Hermitage In Chains
Tracknumber=1
Year=2022
Genre=Black Metal



Register


Go to the top of the page
  Insert nick Quick quote
+Quote Post

Reply to this topicStart new topic
1 User(s) are reading this topic (1 Guests and 0 Anonymous Users)
0 Members:

 



- Lo-Fi Version Support form
Copyrights and abuse reports form
Time is now: 9th February 2023 - 12:51:28