Welcome Guest ( Log In | Register )

> Heretic Legion - Torment (2022), Death Metal
post Jul 22 2022, 08:51:44
Post #1

Правь статус, ####!111
**************
Group: Металариец
Posts: 30,923
Releases: 22794
From: Г.Харьков
On Forums: 10 years 6 months
Thanks: 477013 time(s)
Unknown


(IMG:https://metalarea.org/images/audiocovers/2022_Jul/acov_tid367488_thumb.jpg)

*Artist: Heretic Legion
*Album: Torment
*Year: 2022
*Genre: Death Metal
*Country: Sweden (IMG:https://metalarea.org/forum/style_images/flags/Sweden.png)
*Format: mp3@CBR320kbps
*Size: 121MB

Tracklist:
01. Torment
02. Judgment Told
03. Emptiness Within
04. Bloodbringer, Pt. 2 (feat. Jimmie Strimell)
05. Leviathan
06. Corruption
07. On My Side
08. Insignificant
09. Point of No Return
10. Beneath Us
******************************
Total playing time: 52:09




Extended info
Benjamin Hjort Andersson Bass
Linus Fredriksson Drums
Rasmus Karlsson Guitars
See also: ex-Nocturnal
Daniel Klinteberg Guitars, Vocals
See also: Damned by God, Massdistraction



Technical info
(IMG:https://metalarea.org/images/spectrogram/2022_Jul/e2112502ee5e4a59b4f1cce75b9ab03c.png)
Input File: 07 - On My Side.mp3
Channels : 2
Sample Rate : 44100
Precision : 16-bit
Duration : 00:05:15.00 = 13891500 samples = 23625 CDDA sectors
File Size : 12.8M
Bit Rate : 325k
Sample Encoding: MPEG audio (layer I, II or III)
Comments :
Title=On My Side
Artist=Heretic Legion
Album=Torment
Tracknumber=7
Year=2022-07-22
Genre=Metal
Discnumber=1



Register


Go to the top of the page
  Insert nick Quick quote
+Quote Post
 
Start new topic
Replies (1 - 4)
post Jul 22 2022, 09:16:23
Post #2

Правь статус, ####!111
**************
Group: Металариец
Posts: 30,923
Releases: 22794
From: Г.Харьков
On Forums: 10 years 6 months
Thanks: 477013 time(s)
Unknown


FLAC (Tracks) 387 mb
Register


Go to the top of the page
  Insert nick Quick quote
+Quote Post
post Jul 23 2022, 16:47:25
Post #3

Common dweller of hell
**************
Group: Металариец
Posts: 4,497
Releases: 12
From: Dnipro
On Forums: 14 years 4 months
Thanks: 1781 time(s)
Ukraine


Хороший смерть метал


Thanks:
(1) Andrew,
Go to the top of the page
  Insert nick Quick quote
+Quote Post
post Jul 23 2022, 19:06:36
Post #4

MDM-Thrash Metal
**************
Group: Металариец
Posts: 11,482
Releases: 1602
From: Одесса
On Forums: 15 years 3 months
Thanks: 37793 time(s)
Ukraine


Тоже пришелся по душе альбом. Хорошая смачная дезяра, не лишенная ноток мелодичности.


Thanks:
(1) isvili,
Go to the top of the page
  Insert nick Quick quote
+Quote Post
post Jul 26 2022, 08:12:35
Post #5

Восемь Литров
********
Group: Металариец
Posts: 804
Releases: 0
From: Нижний Новгород
On Forums: 16 years 4 months
Thanks: 347 time(s)
Russian Federation


"не лишенная ноток мелодичности" - в каждой композиции гармоничное сочетание щведского и классического дэтового мелодизма.
Настолько всё правильно сделано, что и обсудить нечего.
Вобщем, кому показался беззубым Deserted fear - настоятельные рекомендации!
Go to the top of the page
  Insert nick Quick quote
+Quote Post

Reply to this topicStart new topic
2 User(s) are reading this topic (2 Guests and 0 Anonymous Users)
0 Members:

 



- Lo-Fi Version Support form
Copyrights and abuse reports form
Time is now: 3rd December 2022 - 16:46:45