Welcome Guest ( Log In | Register )

> Strandhugg - Ashes Of Yggdrasil (2022), Extreme Progressive Metal/Djent
post Jul 24 2022, 03:17:42
Post #1

Правь статус, ####!111
**************
Group: Металариец
Posts: 8,309
Releases: 6560
On Forums: 13 years 3 months
Thanks: 114694 time(s)
Italy


(IMG:https://metalarea.org/images/audiocovers/2022_Jul/acov_tid367552_thumb.jpg)

*Artist: Strandhugg
*Album: Ashes Of Yggdrasil
*Year: 2022
*Genre: Extreme Progressive Metal/Djent
*Country: Norway (IMG:https://metalarea.org/forum/style_images/flags/Norway.png)
*Format: mp3@CBR320kbps
*Size: 94MB

Tracklist:
01.Sviker 05:07
02.Aeon 04:04
03.Void 03:38
04.Dreyra 04:54
05.Blot 04:12
06.Alogum 04:30
07.Sleep Eternal 05:02
08.Fimbulvetr 04:45
09.Gjallarhorn 05:05
******************************
Total playing time: 41:17



Technical info
(IMG:https://metalarea.org/images/spectrogram/2022_Jul/7bc194a0932b246d0de085fb9af8a74f.png)
Input File: 03. Void.mp3
Channels : 2
Sample Rate : 44100
Precision : 16-bit
Duration : 00:03:38.11 = 9618695 samples = 16358.3 CDDA sectors
File Size : 8.78M
Bit Rate : 322k
Sample Encoding: MPEG audio (layer I, II or III)
Comments :
Title=Void
Artist=Strandhugg
Album=Ashes of Yggdrasil
Tracknumber=03
Year=2022
Genre=Extreme Progressive Metal



Register


Go to the top of the page
  Insert nick Quick quote
+Quote Post
 
Start new topic
Replies (1 - 3)
post Jul 25 2022, 07:01:01
Post #2

Восемь Литров
********
Group: Металариец
Posts: 861
Releases: 0
On Forums: 17 years 2 months
Thanks: 119 time(s)
Russian Federation


Мне кажется как были модерн металкором, так и остались. Так ломает качать... Превьюшку бы...
Go to the top of the page
  Insert nick Quick quote
+Quote Post
post Jul 25 2022, 13:46:57
Post #3

Маньяк
**********
Group: Металариец
Posts: 1,121
Releases: 4
From: Харьков
On Forums: 15 years 6 months
Thanks: 416 time(s)
Ukraine


превьюшка для ленивых)


Thanks:
(1) KLOP,
Go to the top of the page
  Insert nick Quick quote
+Quote Post
post Jul 27 2022, 10:26:16
Post #4

Восемь Литров
********
Group: Металариец
Posts: 861
Releases: 0
On Forums: 17 years 2 months
Thanks: 119 time(s)
Russian Federation


ЦИТАТА(nomadgg1 @ Jul 25 2022, 16:46:57) *
превьюшка для ленивых)

Как я и думал, джента нет. Да и вокал довольно противен.
Go to the top of the page
  Insert nick Quick quote
+Quote Post

Reply to this topicStart new topic
2 User(s) are reading this topic (2 Guests and 0 Anonymous Users)
0 Members:

 



- Lo-Fi Version Support form
Copyrights and abuse reports form
Time is now: 3rd March 2024 - 08:11:18