Welcome Guest ( Log In | Register )

> Releases Upload / Добавление релизов

Добавить релиз тут / Click here to add release
Рекомендованные обменники / Recommended file shares

 
Reply to this topicStart new topic
> Cryptum - Aniquilación Humana [ep] (2021), Thrash/Black Metal
post Jul 24 2022, 20:03:10
Post #1

Правь статус, 616
**************
Group: Металариец
Posts: 7,775
Releases: 6141
From: 55°35’N 38°08’E
On Forums: 14 years 1 month
Thanks: 112762 time(s)
Russian Federation


(IMG:https://metalarea.org/images/audiocovers/2022_Jul/acov_tid367580_thumb.jpg)

*Artist: Cryptum
*Album: Aniquilación Humana [ep]
*Year: 2021
*Genre: Thrash/Black Metal
*Country: Costa Rica (IMG:https://metalarea.org/forum/style_images/flags/Costa%20Rica.png)
*Format: mp3@CBR320kbps
*Size: 36MB

Tracklist:
1.Aniquilación Humana 03:41
2.The Devil I Am 02:38
3.Weeps Blood 03:43
4.Fuck God 02:15
5.Nuke The Cross (Toxic Holocaust cover) 02:42
******************************
Total playing time: 14:59



(IMG:https://metalarea.org/images/youtube.png)

Technical info
(IMG:https://metalarea.org/images/spectrogram/2022_Jul/193467dbe1347815bf142c5955309b44.png)
Input File: 01 Aniquilación Humana.mp3
Channels : 2
Sample Rate : 44100
Precision : 16-bit
Duration : 00:03:41.22 = 9755802 samples = 16591.5 CDDA sectors
File Size : 9.02M
Bit Rate : 326k
Sample Encoding: MPEG audio (layer I, II or III)
Comments :
Title=Aniquilación Humana
Artist=Cryptum
Album=Aniquilación Humana
Tracknumber=1
Year=2021
Genre=Thrash/Black Metal



Register


Go to the top of the page
  Insert nick Quick quote
+Quote Post

Reply to this topicStart new topic
1 User(s) are reading this topic (1 Guests and 0 Anonymous Users)
0 Members:

 



- Lo-Fi Version Support form
Copyrights and abuse reports form
Time is now: 11th August 2022 - 01:20:01