Welcome Guest ( Log In | Register )

> Nahtrunar - Wolfsstunde (2022), Black Metal (D)
post Jul 25 2022, 17:56:36
Post #1

Правь статус, ####!111
**************
Group: Металариец
Posts: 30,888
Releases: 22762
From: Г.Харьков
On Forums: 10 years 6 months
Thanks: 476311 time(s)
Unknown


(IMG:https://metalarea.org/images/audiocovers/2022_Jul/acov_tid367592_thumb.jpg)

*Artist: Nahtrunar
*Album: Wolfsstunde
*Year: 2022
*Genre: Black Metal
*Country: Austria (IMG:https://metalarea.org/forum/style_images/flags/Austria.png)
*Format: mp3@CBR320kbps
*Size: 106MB

Tracklist:
1. Fund 10:54
2. Odal I (Interludium) 02:54
3. Wolfsstunde 09:12
4. Neun Weihenächte 10:33
5. Odal II (Interludium) 01:56
6. Alte Heiligkeit 10:40
******************************
Total playing time: 46:09



Technical info
(IMG:https://metalarea.org/images/spectrogram/2022_Jul/58c779d9697ca077022b8a21abbff048.png)
Input File: 03 Wolfsstunde.mp3
Channels : 2
Sample Rate : 44100
Precision : 16-bit
Duration : 00:09:13.07 = 24390343 samples = 41480.2 CDDA sectors
File Size : 22.2M
Bit Rate : 321k
Sample Encoding: MPEG audio (layer I, II or III)
Comments :
Title=Wolfsstunde
Artist=Nahtrunar
Album=Wolfsstunde
Tracknumber=3
Year=2022



Register

Register


Go to the top of the page
  Insert nick Quick quote
+Quote Post
 
Start new topic
Replies (1 - 3)
post Jul 25 2022, 19:39:09
Post #2

кручу наждак
**************
Group: Металариец
Posts: 5,800
Releases: 107
From: Самара
On Forums: 12 years 6 months
Thanks: 4549 time(s)
Russian Federation


Чо за невнятный атмосферик? Это точно тот Нахтрунар?


Thanks:
Go to the top of the page
  Insert nick Quick quote
+Quote Post
post Jul 27 2022, 16:45:22
Post #3

Маньяк
**********
Group: Металариец
Posts: 1,267
Releases: 6
On Forums: 5 years 5 months
Thanks: 871 time(s)
Russian Federation


Приятный альбом. Как будто с пригоршней квебека. Вполне внятный, если знать, чему Внемлеть.


Thanks:
(1) Occultas,
Go to the top of the page
  Insert nick Quick quote
+Quote Post
post Jul 31 2022, 14:37:20
Post #4

пустое и необозримое
**************
Group: Металариец
Posts: 5,930
Releases: 0
On Forums: 6 years 10 months
Thanks: 3761 time(s)
Unknown


ЦИТАТА(judaz @ 25th July 2022 - 23:39:09) *
Чо за невнятный атмосферик? Это точно тот Нахтрунар?

+1
ЦИТАТА(Krosis @ 27th July 2022 - 20:45:22) *
Как будто с пригоршней квебека.

нет.
Go to the top of the page
  Insert nick Quick quote
+Quote Post

Reply to this topicStart new topic
2 User(s) are reading this topic (2 Guests and 0 Anonymous Users)
0 Members:

 



- Lo-Fi Version Support form
Copyrights and abuse reports form
Time is now: 30th November 2022 - 07:49:25