Welcome Guest ( Log In | Register )

> Releases Upload / Добавление релизов

Добавить релиз тут / Click here to add release
Рекомендованные обменники / Recommended file shares

 
Reply to this topicStart new topic
> Chains - Cycle [ep] (2022), Post-Black Metal/Blackgaze (D6)
post Jul 26 2022, 05:50:07
Post #1

Правь статус, ####!111
**************
Group: Металариец
Posts: 3,196
Releases: 1709
On Forums: 11 years 8 months
Thanks: 33361 time(s)
Russian Federation


(IMG:https://metalarea.org/images/audiocovers/2022_Jul/acov_tid367603_thumb.jpg)

*Artist: Chains
*Album: Cycle [ep]
*Year: 2022
*Genre: Post-Black Metal/Blackgaze
*Country: Russian Federation (IMG:https://metalarea.org/forum/style_images/flags/Russian%20Federation.png)
*Format: mp3@CBR320kbps
*Size: 46MB

Tracklist:
1.Semya 10:34
2.Plod 09:22
******************************
Total playing time: 19:56



Extended info
Instrumental


Technical info
(IMG:https://metalarea.org/images/spectrogram/2022_Jul/88b64a26bb923896248e3ca6c6451f51.png)
Input File: 01 Semya sample.mp3
Channels : 2
Sample Rate : 44100
Precision : 16-bit
Duration : 00:02:49.34 = 7467674 samples = 12700.1 CDDA sectors
File Size : 6.77M
Bit Rate : 320k
Sample Encoding: MPEG audio (layer I, II or III)
Comments :
Title=Semya
Artist=Chains
Album=Cycle
Tracknumber=01
Year=2022
Genre=Post Black Metal



Register


Go to the top of the page
  Insert nick Quick quote
+Quote Post

Reply to this topicStart new topic
1 User(s) are reading this topic (1 Guests and 0 Anonymous Users)
0 Members:

 



- Lo-Fi Version Support form
Copyrights and abuse reports form
Time is now: 11th August 2022 - 01:14:47