Welcome Guest ( Log In | Register )

> Releases Upload / Добавление релизов

Добавить релиз тут / Click here to add release
Рекомендованные обменники / Recommended file shares

> Path To War - Chaos Eternal [ep] (2022), Death Metal
post Jul 28 2022, 23:44:13
Post #1

Правь статус, ####!111
**************
Group: Металариец
Posts: 29,954
Releases: 22044
From: Г.Харьков
On Forums: 10 years 3 months
Thanks: 458705 time(s)
Unknown


(IMG:https://metalarea.org/images/audiocovers/2022_Jul/acov_tid367696_thumb.jpg)

*Artist: Path To War
*Album: Chaos Eternal [ep]
*Year: 2022
*Genre: Death Metal
*Country: United States (IMG:https://metalarea.org/forum/style_images/flags/United%20States.png)
*Format: mp3@CBR320kbps
*Size: 57MB

Tracklist:
01. Stand as One
02. Even God Bleeds
03. Chaos Eternal
04. Mangled in Barbed Wire
05. Ancestral Savagery
06. Ascension Through Death
******************************
Total playing time: 24:28




Extended info
Dane Benavidez Bass
Andrew Billek Drums
See also: Choking Sands, ex-Fatal Agent, ex-Ninth Realm
Clayton Campbell Guitars, Vocals
Liam McMahon Guitars (2019-present)
See also: Ninth Realm, Sulfuric Hatred, Vile Ritual, Vile Tongues


Technical info
(IMG:https://metalarea.org/images/spectrogram/2022_Jul/6128e78bad985bdf05fc81a22f9cf704.png)
Input File: 05 - Ancestral Savagery.mp3
Channels : 2
Sample Rate : 44100
Precision : 16-bit
Duration : 00:04:44.00 = 12524400 samples = 21300 CDDA sectors
File Size : 11.5M
Bit Rate : 324k
Sample Encoding: MPEG audio (layer I, II or III)
Comments :
Title=Ancestral Savagery
Artist=Path to War
Album=Chaos Eternal
Tracknumber=5
Year=2022-07-25
Genre=Metal
Discnumber=1



Register


Go to the top of the page
  Insert nick Quick quote
+Quote Post
 
Start new topic
Replies (1 - 2)
post Jul 29 2022, 11:45:02
Post #2

Мегаманьяк
***********
Group: Металариец
Posts: 1,740
Releases: 1
From: APATIN, SERBIA, АПАТИН, СЕРБИЯ
On Forums: 14 years 9 months
Thanks: 5180 time(s)



Flac

Register


Thanks:
Go to the top of the page
  Insert nick Quick quote
+Quote Post
post Jul 30 2022, 08:12:05
Post #3

0%Tolerance
**************
Group: Металариец
Posts: 2,059
Releases: 0
On Forums: 9 years 11 months
Thanks: 425 time(s)
Unknown


Кайфовая дезяра.
Go to the top of the page
  Insert nick Quick quote
+Quote Post

Reply to this topicStart new topic
1 User(s) are reading this topic (1 Guests and 0 Anonymous Users)
0 Members:

 



- Lo-Fi Version Support form
Copyrights and abuse reports form
Time is now: 17th August 2022 - 12:33:42