Welcome Guest ( Log In | Register )

> Daidalos - The Expedition (2022), Symphonic Black/Dark Metal
post Jul 29 2022, 07:52:03
Post #1

MDM-Thrash Metal
**************
Group: Металариец
Posts: 11,482
Releases: 1602
From: Одесса
On Forums: 15 years 3 months
Thanks: 37793 time(s)
Ukraine


(IMG:http://metalarea.org/images/audiocovers/2022_Jul/acov_tid367711.jpg)

*Artist: Daidalos
*Album: The Expedition
*Year: 2022
*Genre: Symphonic Black/Dark Metal
*Country: Germany (IMG:http://metalarea.org/forum/style_images/flags/Germany.png)
*Format: mp3@CBR320kbps
*Size: 129MB

Tracklist:
01. The Expedition 07:10
02. Icewind 05:09
03. Sail into the Stars 05:58
04. Stormwind 05:32
05. Married to the Sea 05:22
06. The Empress 05:00
07. Poem in the Snow 08:06
08. Northlight 05:32
09. Melancholy (Bonus Track) 05:35
******************************
Total playing time: 53:24

(IMG:http://metalarea.org/images/youtube.png)
(IMG:http://metalarea.org/images/youtube.png)
(IMG:http://metalarea.org/images/youtube.png)
(IMG:http://metalarea.org/images/youtube.png)
(IMG:http://metalarea.org/images/youtube.png)

Technical info
(IMG:http://metalarea.org/images/spectrogram/2022_Jul/2e1e7bb2cd386a90235fd558da1c970c.png)
Input File: 02 - Icewind.mp3
Channels : 2
Sample Rate : 44100
Precision : 16-bit
Duration : 00:05:09.00 = 13626900 samples = 23175 CDDA sectors
File Size : 12.6M
Bit Rate : 325k
Sample Encoding: MPEG audio (layer I, II or III)
Comments :
Title=Icewind
Artist=Daidalos
Album=The Expedition
Tracknumber=2
Year=2022-07-29
Discnumber=1



Register


Go to the top of the page
  Insert nick Quick quote
+Quote Post
 
Start new topic
Replies (1 - 3)
post Jul 29 2022, 20:31:59
Post #2

Common dweller of hell
**************
Group: Металариец
Posts: 4,497
Releases: 12
From: Dnipro
On Forums: 14 years 4 months
Thanks: 1781 time(s)
Ukraine




Thanks:
Go to the top of the page
  Insert nick Quick quote
+Quote Post
post Jul 29 2022, 21:09:03
Post #3

Это просто место… где все подошло к концу.
**************
Group: Металариец
Posts: 6,711
Releases: 0
From: Страны Мамонтов
On Forums: 15 years 9 months
Thanks: 2681 time(s)
Antarctica


Другой файлообменник, плз
Go to the top of the page
  Insert nick Quick quote
+Quote Post
post Jul 30 2022, 08:23:24
Post #4

Old School Metal
**************
Group: Металариец
Posts: 4,638
Releases: 0
From: г. Минск
On Forums: 13 years 8 months
Thanks: 12610 time(s)
Belarus


Format: mp3@320kbps (Lame 3.93.1)
Register

Lossless: FLAC (tracks)
Register



Go to the top of the page
  Insert nick Quick quote
+Quote Post

Reply to this topicStart new topic
2 User(s) are reading this topic (2 Guests and 0 Anonymous Users)
0 Members:

 



- Lo-Fi Version Support form
Copyrights and abuse reports form
Time is now: 3rd December 2022 - 17:36:21