Welcome Guest ( Log In | Register )

> Rotheads - Slither In Slime (2022), Old School Death Metal
post Jul 29 2022, 23:19:24
Post #1

Правь статус, ####!111
**************
Group: Металариец
Posts: 33,689
Releases: 24937
From: Г.Харьков
On Forums: 11 years 4 months
Thanks: 531198 time(s)
Ukraine


(IMG:https://metalarea.org/images/audiocovers/2022_Jul/acov_tid367739_thumb.jpg)

*Artist: Rotheads
*Album: Slither In Slime
*Year: 2022
*Genre: Old School Death Metal
*Country: Romania (IMG:https://metalarea.org/forum/style_images/flags/Romania.png)
*Format: mp3@CBR320kbps
*Size: 99MB

Tracklist:
1. Vampyric Inbreeding 04:17
2. Lost in the Cemetery Gardens 04:44
3. Gut Mauled 07:14
4. Gore Coffin 06:01
5. Spectral Visitation 04:53
6. Skin Forest 05:58
7. Dragged Through Existence 09:41
******************************
Total playing time: 42:48




Extended info
Spurcăciune Bass (?-2016), Guitars, Vocals
See also: Void Forger, Vorus (live)
Bîrsatan Bass (2014-2015, 2016-present)
Potaie Drums (2016-present)
See also: Void Forger, ex-Spinecrusher
Omu' Rău Guitars (2016-present)




Technical info
(IMG:https://metalarea.org/images/spectrogram/2022_Jul/5b31a73361ab766075004fc5ef86f4aa.png)
Input File: Rotheads - Slither In Slime - 07 Dragged through Existence.mp3
Channels : 2
Sample Rate : 44100
Precision : 16-bit
Duration : 00:09:42.17 = 25673741 samples = 43662.8 CDDA sectors
File Size : 23.5M
Bit Rate : 323k
Sample Encoding: MPEG audio (layer I, II or III)
Comments :
Title=Dragged through Existence
Artist=Rotheads
Album=Slither In Slime
Tracknumber=7
Year=2022



Register


Go to the top of the page
  Insert nick Quick quote
+Quote Post
 
Start new topic
Replies (1 - 3)
post Jul 30 2022, 13:31:24
Post #2

Правь статус, ####!111
**************
Group: Металариец
Posts: 33,689
Releases: 24937
From: Г.Харьков
On Forums: 11 years 4 months
Thanks: 531198 time(s)
Ukraine


FLAC (Tracks) 334 mb
Register


Go to the top of the page
  Insert nick Quick quote
+Quote Post
post Jul 30 2022, 16:49:38
Post #3

Black Death Grind Madness
******
Group: Металариец
Posts: 629
Releases: 0
From: Cassilandia
On Forums: 15 years 3 months
Thanks: 77 time(s)
Brazil


QUOTE(Samaritianin @ Jul 30 2022, 15:31:24) *
FLAC (Tracks) 334 mb

(IMG:style_emoticons/default/true_black.gif) (IMG:style_emoticons/default/9.gif)


Thanks:
Go to the top of the page
  Insert nick Quick quote
+Quote Post
post Jul 30 2022, 19:58:09
Post #4

кручу наждак
**************
Group: Металариец
Posts: 6,235
Releases: 108
From: Самара
On Forums: 13 years 4 months
Thanks: 4813 time(s)
Russian Federation


Спосебо, ждал (с)
Правда, ожидания не совсем оправдались. Видимо в угоду актуальным трендам звук стал подвально-канализационно-болотным. Простой олдскул американского образца с дебютника мне был намного ближе.
Go to the top of the page
  Insert nick Quick quote
+Quote Post

Reply to this topicStart new topic
2 User(s) are reading this topic (2 Guests and 0 Anonymous Users)
0 Members:

 



- Lo-Fi Version Support form
Copyrights and abuse reports form
Time is now: 30th September 2023 - 17:31:39