Welcome Guest ( Log In | Register )

> Hyperdontia & Septage - Hyperdontia/Septage [split] (2022), Death Metal | Death Metal/Goregrind (D11)
post Aug 1 2022, 16:27:56
Post #1

Правь статус, ####!111
**************
Group: Металариец
Posts: 5,736
Releases: 5254
From: Одесса
On Forums: 14 years 6 months
Thanks: 61464 time(s)
Ukraine


(IMG:http://metalarea.org/images/audiocovers/2022_Aug/acov_tid367837_thumb.jpg)

*Artist: Hyperdontia & Septage
*Album: Hyperdontia/Septage [split]
*Year: 2022
*Genre: Death Metal | Death Metal/Goregrind
*Country: Denmark (IMG:http://metalarea.org/forum/style_images/flags/Denmark.png) | Denmark (IMG:http://metalarea.org/forum/style_images/flags/Denmark.png)
*Format: mp3@CBR320kbps
*Size: 23MB

Tracklist:
Hyperdontia:
1. Season of Rot 04:30
Septage:
2. Emetic Rites 02:21
3. Başkasının Kusmuğu 02:11
******************************
Total playing time: 9:02



Technical info
(IMG:http://metalarea.org/images/spectrogram/2022_Aug/ba29808a3dd12c8da74eac8f37f3be76.png)
Input File: Hyperdontia - Hyperdontia - Septage - 01 Season of Rot.mp3
Channels : 2
Sample Rate : 44100
Precision : 16-bit
Duration : 00:04:29.94 = 11904398 samples = 20245.6 CDDA sectors
File Size : 10.8M
Bit Rate : 320k
Sample Encoding: MPEG audio (layer I, II or III)
Comments :
Title=Season of Rot
Artist=Hyperdontia
Album=Hyperdontia / Septage (Split)
Tracknumber=1
Year=2022
Genre=22



Register


Go to the top of the page
  Insert nick Quick quote
+Quote Post
 
Start new topic
Replies (1 - 6)
post Aug 2 2022, 10:11:18
Post #2

Мегаманьяк
***********
Group: Металариец
Posts: 1,947
Releases: 1
From: APATIN, SERBIA, АПАТИН, СЕРБИЯ
On Forums: 15 years 1 month
Thanks: 5739 time(s)



Flac

Register


Go to the top of the page
  Insert nick Quick quote
+Quote Post
post Aug 3 2022, 14:44:23
Post #3
BAN
RO till
Dec 7 2022, 19:26:25



Нажористо валят.


Go to the top of the page
  Insert nick Quick quote
+Quote Post
post Sep 14 2022, 15:19:21
Post #4

Орка тіло ляже в грунт, допоможе ЗСУ
**************
Group: Металариец
Posts: 2,781
Releases: 0
From: Україна
On Forums: 13 years 10 months
Thanks: 2455 time(s)
Ukraine


Отличный сплит, очень хороши обе, жду альбомий от вторых.
Go to the top of the page
  Insert nick Quick quote
+Quote Post
post Oct 10 2022, 22:46:00
Post #5

antithesis
**************
Group: Металариец
Posts: 3,755
Releases: 36
From: VRN
On Forums: 12 years 6 months
Thanks: 2453 time(s)
Russian Federation


в очередной раз сильно понравилась Hyperdontia. камрады по сплиту тож неплохи, но такой вокал значительно меньше нравится.
Go to the top of the page
  Insert nick Quick quote
+Quote Post
post Nov 5 2022, 13:15:48
Post #6

Два Литра
**
Group: Завсегдатай
Posts: 124
Releases: 0
On Forums: 7 months 3 weeks
Thanks: 13 time(s)
Germany


Reup please
Go to the top of the page
  Insert nick Quick quote
+Quote Post
post Nov 6 2022, 14:52:52
Post #7

antithesis
**************
Group: Металариец
Posts: 3,755
Releases: 36
From: VRN
On Forums: 12 years 6 months
Thanks: 2453 time(s)
Russian Federation


ЦИТАТА(XxNachtmahRxX @ Nov 5 2022, 17:15:48) *
Reup please

here it is (besides MF link is still alive)
Register


Thanks:
(1) Occultas,
Go to the top of the page
  Insert nick Quick quote
+Quote Post

Reply to this topicStart new topic
2 User(s) are reading this topic (2 Guests and 0 Anonymous Users)
0 Members:

 



- Lo-Fi Version Support form
Copyrights and abuse reports form
Time is now: 3rd December 2022 - 15:55:01