Welcome Guest ( Log In | Register )

> Releases Upload / Добавление релизов

Добавить релиз тут / Click here to add release
Рекомендованные обменники / Recommended file shares

> Wolven - War Poisoned Cult (2022), Grindcore/Crust Punk (D7)
post Aug 1 2022, 16:34:58
Post #1

Правь статус, ####!111
**************
Group: Металариец
Posts: 5,428
Releases: 4963
From: Одесса
On Forums: 14 years 3 months
Thanks: 58445 time(s)
Ukraine


(IMG:http://metalarea.org/images/audiocovers/2022_Aug/acov_tid367838_thumb.jpg)

*Artist: Wolven
*Album: War Poisoned Cult
*Year: 2022
*Genre: Grindcore/Crust Punk
*Country: Belgium (IMG:http://metalarea.org/forum/style_images/flags/Belgium.png)
*Format: mp3@CBR320kbps
*Size: 77MB

Tracklist:
1. Immersed in Blood 03:27
2. Revolution Guillotine 04:20
3. Death Bringer 03:32
4. Division Kalashnikov 04:45
5. Toxic Red Poison 03:28
6. The Doomsday Machine 04:36
7. Blood for People 03:27
8. Raise the Horns of Chaos 04:05
******************************
Total playing time: 31:40



Extended info
Wolven's 3rd full album, entitled "War Poisoned Cult" presents you 8 highly intense and aggressive tracks as an antidote against today's state of the world.

Shitheads who want war for the sake of the military.
Idiot politicians who twist the law to take advantage of the chaos.
Shattering the faces of those cults.


Technical info
(IMG:http://metalarea.org/images/spectrogram/2022_Aug/d83fc4faab2c8cdc3ab38458bb92f272.png)
Input File: 01. Immersed in Hate.mp3
Channels : 2
Sample Rate : 44100
Precision : 16-bit
Duration : 00:03:28.05 = 9175137 samples = 15604 CDDA sectors
File Size : 8.33M
Bit Rate : 320k
Sample Encoding: MPEG audio (layer I, II or III)
Comments :
Title=Immersed in Hate
Artist=Wolven
Album=War Poisoned Cult
Tracknumber=1
Year=2022
Genre=Grindcore | Crust Punk



Register


Go to the top of the page
  Insert nick Quick quote
+Quote Post
 
Start new topic
Replies (1 - 2)
post Aug 5 2022, 05:14:44
Post #2

0%Tolerance
**************
Group: Металариец
Posts: 2,100
Releases: 0
On Forums: 10 years 1 week
Thanks: 435 time(s)
Unknown


Задорные посаны.
Go to the top of the page
  Insert nick Quick quote
+Quote Post
post Sep 22 2022, 20:50:52
Post #3

Маньяк
**********
Group: Металариец
Posts: 1,237
Releases: 10
On Forums: 13 years 8 months
Thanks: 172 time(s)
Germany


Please, re-upload.
Go to the top of the page
  Insert nick Quick quote
+Quote Post

Reply to this topicStart new topic
2 User(s) are reading this topic (2 Guests and 0 Anonymous Users)
0 Members:

 



- Lo-Fi Version Support form
Copyrights and abuse reports form
Time is now: 25th September 2022 - 22:09:36